Скачать порно через торрент Kagney Linn Karter: Lies Кеньи Линн Картер: Ложь UnionPeer.org бесплатно онлайн HD качество

Скачать новое порно 2015, 2014 новинки через торрент UnionPeer.org

Порно торрент бесплатно ЮнионПир.орг

Статистика раздачи
Размер:  15.85 GB   |    Зарегистрирован:  12 лет   |    .torrent скачан:  297 раз   |   
Раздают:  1  
   
 
Автор Сообщение

bot

avatar bot


Kagney Linn Karter: Lies / Кеньи Линн Картер: Ложь


Год производства: 2009 г. Страна: USA Жанр: Feature, Straight Продолжительность: 01:50:07
Субтитры: Нет Язык: Английский
Режиссер: Robby D. Студия: Digital Playground
В ролях:
Angelina Armani, James Deen, Kagney Linn Karter, Manuel Ferrara, Mick Blue, Sara Stone, Scott Nails, Vanessa Leon

Описание: | IMDB |
Kageny Linn Karter Lies Blu-Ray Description: "When threatened with losing her man to a sexy and seductive stripper in town,
Angelina Armani finds herself caught in the jealous web she's spun. The only way to get out and get even is to have the hottest sex of her life."
Качество видео: Формат видео: MKV
Видео кодек: AVC Аудио кодек: AC-3
Видео: AVC | 16:9 | 1920x1080 | 23.976 fps | 19.6 Mbps
Аудио: AC-3 | 48.0 KHz | 6 ch | 640 Kbps

Код:

D:\unionpeer.org\Kagney.Linn.Karter_Lies.REMUX.Evgen.ip.mkv
   General
      Complete name : D:\unionpeer.org\Kagney.Linn.Karter_Lies.REMUX.Evgen.ip.mkv
      Format : Matroska
      File size : 15.9 GiB
      Duration : 1h 50mn
      Overall bit rate : 20.6 Mbps
      Movie name : *unionpeer.org* Evgen.ip
      Encoded date : UTC 2010-08-10 17:16:57
      Writing application : mkvmerge v4.2.0 ('No Talking') сборка от Jul 28 2010 18:38:23
      Writing library : libebml v1.0.0 + libmatroska v1.0.0
   Video #1
      ID : 1
      Format : AVC
      Format/Info : Advanced Video Codec
      Format profile : [email protected]
      Format settings, CABAC : Yes
      Format settings, ReFrames : 4 frames
      Muxing mode : Container [email protected]
      Codec ID : V_MPEG4/ISO/AVC
      Duration : 1h 50mn
      Bit rate : 19.6 Mbps
      Width : 1 920 pixels
      Height : 1 080 pixels
      Display aspect ratio : 16:9
      Frame rate : 23.976 fps
      Standard : NTSC
      Color space : YUV
      Chroma subsampling : 4:2:0
      Bit depth : 8 bits
      Scan type : Progressive
      Bits/(Pixel*Frame) : 0.393
      Stream size : 15.0 GiB (95%)
      Title : Video-fail-
      Color primaries : BT.709-5, BT.1361, IEC 61966-2-4, SMPTE RP177
      Transfer characteristics : BT.709-5, BT.1361
      Matrix coefficients : BT.709-5, BT.1361, IEC 61966-2-4 709, SMPTE RP177
   Audio #2
      ID : 2
      Format : AC-3
      Format/Info : Audio Coding 3
      Mode extension : CM (complete main)
      Codec ID : A_AC3
      Duration : 1h 50mn
      Bit rate mode : Constant
      Bit rate : 640 Kbps
      Channel(s) : 6 channels
      Channel positions : Front: L C R, Side: L R, LFE
      Sampling rate : 48.0 KHz
      Bit depth : 16 bits
      Stream size : 504 MiB (3%)
      Title : Audio-fail-


Внимание! AdBlock блокирует показ скриншотов, все вопросы к разработчикам )))
Трекер:  [ 27-Июл-2011 16:39 ]

  

Скачать .torrent

Размер .torrent файла 79 KB


Размер: 15.85 GB
Хэш (hash) релиза: 67acea094187b919eff8b8eed2fbad42fd76284e

Торренты, похожие на Kagney Linn Karter: Lies Кеньи Линн Картер: Ложь скачать торрент

Форум Название Автор Размер S L Добавлен
Фильмы без сюжета 1991-2010 / All Sex & Amateur 1991-2010 ·· Kagney Linn Karter: Lies / Кеньи Линн Картер: Ложь (Robby D, Digital Playground) [2009, Feature, Straight, 1080p [url=https://adult-images.ru/1024/35489/]Смотреть онлайн[/url] [url=https://adult-images.ru/1024/35489/]Смотреть онлайн[/url], Blu-Ray] Galfimbul 2270211801121.14 GB 0 0 1310323123

21:38

10-Июл-11

Еще никто не оставлял запись к записи скачать торрент Kagney Linn Karter: Lies Кеньи Линн Картер: Ложь . Будь первым!

!Обратная связь