Скачать порно через торрент Hitomi Tanaka - SUPER J Hitomi Супер Упругая Грудь Хитоми UnionPeer.org бесплатно онлайн HD качество

Скачать новое порно 2015, 2014 новинки через торрент UnionPeer.org

Порно торрент бесплатно ЮнионПир.орг

Статистика раздачи
Размер:  20.38 GB   |    Зарегистрирован:  12 лет   |    .torrent скачан:  650 раз   |   
Раздают:  1  
   
 
Автор Сообщение

Galfimbul

avatar Galfimbul


[BLU-RAY]
Hitomi Tanaka
SUPER J Hitomi / Супер Упругая Грудь Хитоми
Год производства: 2009 г.
Страна: Japan
Жанр: Asian, Big Tits, All Sex
Продолжительность: 02:01:37
Цензура: Есть во всех файлах

Язык: Японский
Студийный код фильма: ARS-020
Студия: Arashi
В ролях: Hitomi Tanaka - J-cup 97см
Описание:
Hitomi entertainers Jcup long-awaited move to the lightning storm is to call the Super Girl! Honeydew shake GACHI continuous HARD FUCK! Geki stet immediate excitement in love juice loaf SEX! Concentrated power in a closed room and showed MAONANI FUCK! 2 J powerful man who is shoved to the back JI meat rod in the vagina in cowgirl MA Cup 3P peak scream! The move from a frantic assault bomb! 120 minutes NOKI storm!
Доп. информация: http://www.arashi-supergirl.com/work/ars/ars020.html

Тип HD видео: 1080p
Качество видео: Blu-Ray
Формат видео: Blu-Ray Video
Видео кодек: MPG2
Аудио кодек: PCM
Видео: MPG2 1920x1080 29.97fps 21.0 Mbps
Аудио: PCM 48000Hz stereo 1 536 Kbps
General
ID : 0 (0x0)
Complete name : E:\uTorrent\pornolab\FULL HD\[BLU-RAY] ARS020 SUPER J Hitomi\BDMV\STREAM\00000.m2ts
Format : BDAV
Format/Info : Blu-ray Video
File size : 20.2 GiB
Duration : 2h 1mn
Overall bit rate : 23.8 Mbps
Maximum Overall bit rate : 48.0 Mbps

Video
ID : 4113 (0x1011)
Menu ID : 1 (0x1)
Format : MPEG Video
Format version : Version 2
Format profile : Main@High
Format settings, BVOP : Yes
Format settings, Matrix : Default
Format settings, GOP : M=3, N=24
Codec ID : 2
Duration : 2h 1mn
Bit rate mode : Constant
Bit rate : 21.0 Mbps
Width : 1 920 pixels
Height : 1 080 pixels
Display aspect ratio : 16:9
Frame rate : 29.970 fps
Standard : NTSC
Color space : YUV
Chroma subsampling : 4:2:0
Bit depth : 8 bits
Scan type : Interlaced
Scan order : Top Field First
Compression mode : Lossy
Bits/(Pixel*Frame) : 0.338
Stream size : 18.1 GiB (90%)

Audio
ID : 4352 (0x1100)
Menu ID : 1 (0x1)
Format : PCM
Format settings, Endianness : Big
Format settings, Sign : Signed
Muxing mode : Blu-ray
Codec ID : 128
Duration : 2h 1mn
Bit rate mode : Constant
Bit rate : 1 536 Kbps
Channel(s) : 2 channels
Channel positions : Front: L R
Sampling rate : 48.0 KHz
Bit depth : 16 bits
Stream size : 1.30 GiB (6%)



Внимание! AdBlock блокирует показ скриншотов, все вопросы к разработчикам )))

Трекер:  [ 28-Июл-2011 08:52 ]

  

Скачать .torrent

Размер .torrent файла 104 KB


Размер: 20.38 GB
Хэш (hash) релиза: c89d818d998cf0284a444141a805236a25c1c54f

Еще никто не оставлял запись к записи скачать торрент Hitomi Tanaka - SUPER J Hitomi Супер Упругая Грудь Хитоми . Будь первым!

!Обратная связь