Скачать через торрент Доктор Стрэндж Doctor Strange Фильм бесплатно в хорошем качестве torrent

Скачивайте на UnionPeer.org фильмы через торрент без регистрации. Новинки кино в хорошем качестве через торрент. На UnionPeer.org можно скачать через торрент фильмы 2014 и 2015 годов. Самые новые фильмы.

Скачать торрент Доктор Стрэндж Doctor Strange бесплатно через .torrent фильм мультфильм сериал

Статистика раздачи
Размер:  16.55 GB   |    Зарегистрирован:  6 лет 11 месяцев   |    .torrent скачан:  246 раз   |   
Раздают:  1  
   
 
Автор Сообщение

Galfimbul

avatar Galfimbul


Доктор Стрэндж / Doctor Strange

Страна: США
Жанр: фантастика, фэнтези, боевик, приключения
Год выпуска: 2016
Продолжительность: 01:55:15

Перевод: Профессиональный (дублированный) BD EUR
Cубтитры: Русские, Английские
Оригинальная аудиодорожка: английский

Режиссер: Скотт Дерриксон / Scott Derrickson

В ролях: Бенедикт Камбербэтч, Тильда Суинтон, Мадс Миккельсен, Чиветель Эджиофор, Рэйчел МакАдамс, Бенедикт Вонг, Майкл Стулбарг, Бенджамин Брэтт, Скотт Эдкинс, Зара Питиан

Описание: Страшная автокатастрофа поставила крест на карьере успешного нейрохирурга Доктора Стрэнджа. Отчаявшись, он отправляется в путешествие в поисках исцеления и открывает в себе невероятные способности к трансформации пространства и времени. Теперь он - связующее звено между параллельными измерениями, а его миссия - защищать жителей Земли и противодействовать Злу, какое бы обличие оно ни принимало.

<div class="post-box">Скачать сэмпл</div>

Доп. Информация:
Рип от DON.

Тип релиза: BDRip 1080p
Контейнер: MKV

Видео: MPEG-4 AVC, 16,7 Мбит/с, 1920x804, 23,976 fps
Аудио 1: Rus, AC3, 640 kb/s (6 ch), 48 kHz
Аудио 2: Ukr, DTS, 1509 kb/s (6 ch), 48 kHz
Аудио 3: Eng, DTS, 1509 kb/s (6 ch), 48 kHz
Аудио 4: Eng, AC3, 192 kb/s (2 ch), 48 kHz
Формат субтитров: softsub (SRT)
x264 [info]: frame I:1187 Avg QP:11.49 size:251778
x264 [info]: frame P:38869 Avg QP:13.26 size:145446
x264 [info]: frame B:125344 Avg QP:14.22 size: 67706
x264 [info]: consecutive B-frames: 4.2% 3.7% 9.0% 15.3% 18.1% 34.5% 9.7% 1.8% 2.5% 1.3%



<div class="post-box">NOTES:

Repack reason: The dirty lines on metal bars shouldn't be fixed so i did leave it.
Proper reason: FTO encode is sadly bitrate starved at all light, semi-dark, dark, high motion scenes.
Also most of the banding was missed/wasn't fixed.
While he didn't mux commentary track, no named chapter.
Special thanks to Nick007 who helped tips split and append video. You're the best.
Special thanks to Elheym and everyone who helped with the subtitles.
Applied F3kdb ConditionalFilter and zoned for some scenes visible banding/blocking.
Source was separated into light, semi-dark, dark, high motion scenes along with various crf values on zones.
Greetings: Nick007, v0danh, BodoiCuHo, riverstore, rose, wolgone, Friday, AraGorN, NOiZE and my friends !

</div>



Debanded/Deblocked:

CHD vs DON
CHD vs DON
HDC vs DON
Общее
Уникальный идентификатор : 202541071275197616998359766970607801031 (0x985FFDCD4A1467289424E1A972D712C7)
Полное имя : Doctor.Strange.2016.BDRip.1080p.mkv
Формат : Matroska
Версия формата : Version 4 / Version 2
Размер файла : 16,5 Гбайт
Продолжительность : 1 ч. 54 м.
Общий поток : 20,6 Мбит/сек
Дата кодирования : UTC 2017-03-01 03:41:23
Программа кодирования : mkvmerge v9.9.0 ('Pick Up') 64bit
Библиотека кодирования : libebml v1.3.4 + libmatroska v1.4.5
Обложка : Yes
Attachments : Cover.png

Видео
Идентификатор : 1
Формат : AVC
Формат/Информация : Advanced Video Codec
Профиль формата : [email protected]
Параметр CABAC формата : Да
Параметр ReFrames формата : 5 кадров
Идентификатор кодека : V_MPEG4/ISO/AVC
Продолжительность : 1 ч. 54 м.
Битрейт : 16,7 Мбит/сек
Ширина : 1920 пикселей
Высота : 804 пикселя
Соотношение сторон : 2,40:1
Режим частоты кадров : Постоянный
Частота кадров : 23,976 (24000/1001) кадра/сек
Цветовое пространство : YUV
Субдискретизация насыщенности : 4:2:0
Битовая глубина : 8 бит
Тип развёртки : Прогрессивная
Бит/(Пиксели*Кадры) : 0.452
Размер потока : 13,4 Гбайт (81%)
Библиотека кодирования : x264 core 148 r2705+54 9f484c1 t_mod_Custom [8-bit@all X86_64]
Настройки программы : cabac=1 / ref=5 / deblock=1:-3:-3 / analyse=0x3:0x133 / me=tesa / subme=11 / psy=1 / fade_compensate=0.00 / psy_rd=1.05:0.00 / mixed_ref=1 / me_range=24 / chroma_me=1 / trellis=2 / 8x8dct=1 / cqm=0 / deadzone=21,11 / fast_pskip=0 / chroma_qp_offset=-2 / threads=12 / lookahead_threads=2 / sliced_threads=0 / nr=0 / decimate=0 / interlaced=0 / bluray_compat=0 / constrained_intra=0 / fgo=0 / bframes=9 / b_pyramid=2 / b_adapt=2 / b_bias=0 / direct=3 / weightb=1 / open_gop=0 / weightp=2 / keyint=250 / keyint_min=23 / scenecut=40 / intra_refresh=0 / rc_lookahead=60 / rc=crf / mbtree=0 / crf=15.7000 / qcomp=0.65 / qpmin=0:0:0 / qpmax=69:69:69 / qpstep=4 / vbv_maxrate=62500 / vbv_bufsize=78125 / crf_max=0.0 / nal_hrd=none / filler=0 / ip_ratio=1.30 / pb_ratio=1.20 / aq=3:0.80 / aq-sensitivity=10.00 / aq-factor=1.00:1.00:1.00 / aq2=0 / aq3=0 / zones=66,600,crf=13.5/601,870,crf=12.5/1004,3930,crf=15.2/15744,17535,crf=14/17961,18020,crf=13.5/40761,40923,crf=14/42080,42140,crf=14.5/42230,43248,crf=14.5/43636,43680,crf=12.5/43681,44414,crf=14.5/44415,44492,crf=12/44493,45084,crf=13/45130,47532,crf=15.2/47645,47796,crf=14.5/48039,49526,crf=15.2/50079,50713,crf=15/51413,56219,crf=15.2/56220,56495,crf=13.5/56496,57235,crf=15.2/62245,62693,crf=15.2/62887,64267,crf=15.2/69639,78965,crf=15.2/79948,81883,crf=15.2/81884,83920,crf=15/83921,84039,crf=14/84040,95120,crf=15.2/97899,97974,crf=13/97975,98171,crf=15/100092,100143,crf=12.5/100906,100934,crf=15/104498,111404,crf=15.2/112405,112458,crf=15/119391,124115,crf=15.2/127860,128144,crf=15.2/128745,131961,crf=15.2/131962,132036,crf=14/132037,132072,crf=15.2/132073,132130,crf=14/132220,132453,crf=15.2/132454,132472,crf=14/132473,134905,crf=15/134906,135070,crf=13.5/135071,136547,crf=15/136971,137595,crf=15/137596,137653,crf=14.5/137716,138185,crf=14.5/138384,139699,crf=14/139700,139881,crf=14.5/139882,139890,crf=12.5/139891,143840,crf=14/145174,145587,crf=15/146272,146360,crf=15/148080,148590,crf=15.2/148591,148620,crf=14.5/148621,150280,crf=15.2/151205,151252,crf=12.5/151730,151886,crf=13.5/154660,162580,crf=19/165130,165244,crf=12.5
Язык : English
Default : Да
Forced : Нет
Цветовой диапазон : Limited
Коэффициенты матрицы : BT.709

Аудио #1
Идентификатор : 2
Формат : AC-3
Формат/Информация : Audio Coding 3
Расширение режима : CM (complete main)
Параметр Endianness формата : Big
Идентификатор кодека : A_AC3
Продолжительность : 1 ч. 54 м.
Вид битрейта : Постоянный
Битрейт : 640 Кбит/сек
Каналы : 6 каналов
Расположение каналов : Front: L C R, Side: L R, LFE
Частота : 48,0 КГц
Частота кадров : 31,250 кадров/сек (1536 spf)
Метод сжатия : С потерями
Размер потока : 526 Мбайт (3%)
Заголовок : BD EUR
Язык : Russian
Default : Да
Forced : Нет

Аудио #2
Идентификатор : 3
Формат : DTS
Формат/Информация : Digital Theater Systems
Режим : 16
Параметр Endianness формата : Big
Идентификатор кодека : A_DTS
Продолжительность : 1 ч. 54 м.
Вид битрейта : Постоянный
Битрейт : 1509 Кбит/сек
Каналы : 6 каналов
Расположение каналов : Front: L C R, Side: L R, LFE
Частота : 48,0 КГц
Частота кадров : 93,750 кадра/сек (512 spf)
Битовая глубина : 24 бит
Метод сжатия : С потерями
Размер потока : 1,21 Гбайт (7%)
Язык : Ukrainian
Default : Нет
Forced : Нет

Аудио #3
Идентификатор : 4
Формат : DTS
Формат/Информация : Digital Theater Systems
Режим : 16
Параметр Endianness формата : Big
Идентификатор кодека : A_DTS
Продолжительность : 1 ч. 54 м.
Вид битрейта : Постоянный
Битрейт : 1509 Кбит/сек
Каналы : 6 каналов
Расположение каналов : Front: L C R, Side: L R, LFE
Частота : 48,0 КГц
Частота кадров : 93,750 кадра/сек (512 spf)
Битовая глубина : 24 бит
Метод сжатия : С потерями
Размер потока : 1,21 Гбайт (7%)
Язык : English
Default : Нет
Forced : Нет

Аудио #4
Идентификатор : 5
Формат : AC-3
Формат/Информация : Audio Coding 3
Расширение режима : CM (complete main)
Параметр Endianness формата : Big
Идентификатор кодека : A_AC3
Продолжительность : 1 ч. 54 м.
Вид битрейта : Постоянный
Битрейт : 192 Кбит/сек
Каналы : 2 канала
Расположение каналов : Front: L R
Частота : 48,0 КГц
Частота кадров : 31,250 кадров/сек (1536 spf)
Метод сжатия : С потерями
Размер потока : 158 Мбайт (1%)
Заголовок : Commentary by Director & Writer Scott Derrickson
Язык : English
Default : Нет
Forced : Нет

Текст #1
Идентификатор : 6
Формат : UTF-8
Идентификатор кодека : S_TEXT/UTF8
Идентификатор кодека/Информация : UTF-8 Plain Text
Продолжительность : 1 ч. 33 м.
Битрейт : 0 бит/сек
Count of elements : 3
Размер потока : 86,0 байт (0%)
Заголовок : Forced
Язык : Russian
Default : Да
Forced : Нет

Текст #2
Идентификатор : 7
Формат : UTF-8
Идентификатор кодека : S_TEXT/UTF8
Идентификатор кодека/Информация : UTF-8 Plain Text
Продолжительность : 1 ч. 52 м.
Битрейт : 73 бит/сек
Count of elements : 1289
Размер потока : 60,7 Кбайт (0%)
Язык : Russian
Default : Нет
Forced : Нет

Текст #3
Идентификатор : 8
Формат : UTF-8
Идентификатор кодека : S_TEXT/UTF8
Идентификатор кодека/Информация : UTF-8 Plain Text
Продолжительность : 6 с. 340 мс.
Битрейт : 18 бит/сек
Count of elements : 1
Размер потока : 15,0 байт (0%)
Заголовок : Forced
Язык : English
Default : Нет
Forced : Нет

Текст #4
Идентификатор : 9
Формат : UTF-8
Идентификатор кодека : S_TEXT/UTF8
Идентификатор кодека/Информация : UTF-8 Plain Text
Продолжительность : 1 ч. 52 м.
Битрейт : 43 бит/сек
Count of elements : 1319
Размер потока : 36,1 Кбайт (0%)
Язык : English
Default : Нет
Forced : Нет

Текст #5
Идентификатор : 10
Формат : UTF-8
Идентификатор кодека : S_TEXT/UTF8
Идентификатор кодека/Информация : UTF-8 Plain Text
Продолжительность : 1 ч. 54 м.
Битрейт : 49 бит/сек
Count of elements : 1584
Размер потока : 41,3 Кбайт (0%)
Заголовок : SDH
Язык : English
Default : Нет
Forced : Нет

Текст #6
Идентификатор : 11
Формат : UTF-8
Идентификатор кодека : S_TEXT/UTF8
Идентификатор кодека/Информация : UTF-8 Plain Text
Продолжительность : 1 ч. 54 м.
Битрейт : 62 бит/сек
Count of elements : 1584
Размер потока : 52,6 Кбайт (0%)
Заголовок : SDH-Colored
Язык : English
Default : Нет
Forced : Нет

Текст #7
Идентификатор : 12
Формат : UTF-8
Идентификатор кодека : S_TEXT/UTF8
Идентификатор кодека/Информация : UTF-8 Plain Text
Продолжительность : 1 ч. 54 м.
Битрейт : 118 бит/сек
Count of elements : 1967
Размер потока : 99,1 Кбайт (0%)
Заголовок : Commentary
Язык : English
Default : Нет
Forced : Нет

Меню
00:00:00.000 : en:Prologue
00:04:34.566 : en:The Good Doctor
00:10:16.825 : en:Medicine And Mania
00:18:32.153 : en:Kamar-Taj
00:24:37.017 : en:Open Your Eye
00:31:40.482 : en:The Mystic Arts
00:38:33.811 : en:Surrender
00:43:16.135 : en:Infinite Dangers
00:48:24.527 : en:Eye of Agamotto
00:55:34.498 : en:Sanctum Siege
01:05:04.359 : en:Astral Battle
01:12:38.437 : en:Manhattan Mirror Dimension
01:22:14.346 : en:It's Not About You
01:28:28.637 : en:Defending Hong Kong
01:35:00.904 : en:The Dark Dimension
01:45:06.509 : en:End Credits


Внимание! AdBlock блокирует показ скриншотов, все вопросы к разработчикам )))
Трекер:  [ 01-Мар-2017 02:30 ]

  

Скачать .torrent

Размер .torrent файла 42 KB


Размер: 16.55 GB
Хэш (hash) релиза: f3d3376524316869ecfce3914d26cf5d807e1202
Подписка на обновления:

Торренты, похожие на Доктор Стрэндж Doctor Strange скачать торрент

Форум Название Автор Размер S L Добавлен
Зарубежные фильмы 2016-2019 (Новинки зарубежного кино) ·· Доктор Стрэндж / Doctor Strange (2016) UHD BDRip-HEVC 2160p | 4K | HDR | D, A Galfimbul 2153853041620.06 GB 0 0 1582146008

00:00

20-Фев-20

Зарубежные фильмы 2016-2019 (Новинки зарубежного кино) ·%· Доктор Стрэндж / Doctor Strange (2016) UHD BDRemux 2160p от ExKinoRay | HDR | D, A Galfimbul 7029109811565.46 GB 0 0 1569684612

18:30

28-Сен-19

Зарубежные фильмы 2016-2019 (Новинки зарубежного кино) ·%· Доктор Стрэндж / Doctor Strange (2016) UHD BDRemux 2160p от ExKinoRay | HDR | D, L1, A Galfimbul 6655151668161.98 GB 0 0 1569671415

14:50

28-Сен-19

Зарубежные фильмы 2016-2019 (Новинки зарубежного кино) ·%· Доктор Стрэндж / Doctor Strange (2016) WEB-DLRip-AVC | D | Open Matte Galfimbul 24544406442.29 GB 0 0 1561810822

15:20

29-Июн-19

Зарубежные фильмы 2016-2019 (Новинки зарубежного кино) ·%· Доктор Стрэндж / Doctor Strange (2016) BDRip-HEVC 720p | D Galfimbul 22056735842.05 GB 0 0 1561673411

01:10

28-Июн-19

Зарубежные фильмы 2016-2019 (Новинки зарубежного кино) ·%· Доктор Стрэндж / Doctor Strange (2016) WEB-DLRip 720p от SuperMin | D | Open Matte Galfimbul 28333138452.64 GB 0 0 1558713012

18:50

24-Май-19

Зарубежные фильмы 2016-2019 (Новинки зарубежного кино) ·%· Доктор Стрэндж / Doctor Strange (2016) BDRip-HEVC 1080p от M@kSIMus | Лицензия | IMAX Galfimbul 84855974697.9 GB 0 0 1547111423

12:10

10-Янв-19

Зарубежные фильмы 2016-2019 (Новинки зарубежного кино) ·%· Доктор Стрэндж / Doctor Strange (2016) BDRip-AVC от MediaClub | D, A Galfimbul 37737688593.51 GB 0 0 1546185033

18:50

30-Дек-18

Зарубежные фильмы до 2016 ·%· Доктор Стрэндж / Doctor Strange (Скотт Дерриксон / Scott Derrickson) [2016, США, Фантастика, фэнтези, боевик, приключения, DVD5 (сжатый)] исх. R5, Dub + Sub Rus + Original Eng Galfimbul 46776668164.36 GB 0 0 1531162955

22:02

9-Июл-18

Зарубежные фильмы 2016-2019 (Новинки зарубежного кино) ·· Доктор Стрэндж / Doctor Strange (Скотт Дерриксон / Scott Derrickson) [2016, США, фантастика, боевик, приключения, BDRip] AVO (Юрий Живов) Galfimbul 22039019522.05 GB 0 0 1527003010

18:30

22-Май-18

Зарубежные фильмы до 2016 ·· Доктор Стрэндж / Doctor Strange (Скотт Дерриксон / Scott Derrickson) [2016, США, Фантастика, фэнтези, боевик, приключения, DVD9] R5 Dub + Sub Rus + Original Eng Galfimbul 68324249606.36 GB 0 0 1524751326

17:02

26-Апр-18

Зарубежные фильмы 2016-2019 (Новинки зарубежного кино) ·· Доктор Стрэндж / Doctor Strange (Скотт Дерриксон / Scott Derrickson) [2016, США, фантастика, фэнтези, боевик, приключения, BDRip] AVO (Сербин) Galfimbul 15676293121.46 GB 0 0 1508079679

18:01

15-Окт-17

3D Фильмы, кино ·· Доктор Стрэндж / Doctor Strange 3D (Скотт Дерриксон / Scott Derrickson) [2016, фантастика, фэнтези, боевик, приключения, BDRip] [IMAX Edition] Half SideBySide / Горизонтальная анаморфная стереопара Galfimbul 102815348969.58 GB 0 0 1504819890

00:31

8-Сен-17

Зарубежные фильмы до 2016 ·· Доктор Стрэндж / Doctor Strange (Скотт Дерриксон / Scott Derrickson) [2016, США, фантастика, фэнтези, боевик, приключения, BDRemux>DVD9 (Custom)] Dub + Sub (Rus, Eng) + Original Eng Galfimbul 83813580807.81 GB 0 0 1488648779

20:32

4-Мар-17

Трейлеры и дополнительные материалы ·· Доктор Стрэндж / Doctor Strange (Скотт Дерриксон) [2016, Фантастика | Боевик | Приключения, BDRip 720p] дополнительные материалы Galfimbul 28467301752.65 GB 0 0 1488404838

00:47

2-Мар-17

Зарубежные фильмы 2016-2019 (Новинки зарубежного кино) ·· Доктор Стрэндж / Doctor Strange (2016) Blu-Ray EUR 1080p | Лицензия Galfimbul 4712327557343.89 GB 0 0 1488312700

23:11

28-Фев-17

Зарубежные фильмы 2016-2019 (Новинки зарубежного кино) ·· Доктор Стрэндж / Doctor Strange (Скотт Дерриксон / Scott Derrickson) [2016, США, фантастика, фэнтези, боевик, BDRip-AVC] Dub + Original + Sub (rus, eng) Galfimbul 31353994272.92 GB 0 0 1488016576

12:56

25-Фев-17

Зарубежные фильмы 2016-2019 (Новинки зарубежного кино) ·· Доктор Стрэндж / Doctor Strange (Скотт Дерриксон / Scott Derrickson) [2016, США, фантастика, фэнтези, боевик, приключения, BDRip-AVC] [IMAX Edition] Dub (iTunes) + Sub Rus, Eng + Original Eng Galfimbul 38423024493.58 GB 0 0 1488016549

12:55

25-Фев-17

Зарубежные фильмы 2016-2019 (Новинки зарубежного кино) ·· Доктор Стрэндж / Doctor Strange (Скотт Дерриксон / Scott Derrickson) [2016, США, фантастика, фэнтези, боевик, приключения, BDRip-AVC] [IMAX Edition] Dub (iTunes) + Sub Rus, Eng + Original Eng Galfimbul 20844164431.94 GB 0 0 1488016543

12:55

25-Фев-17

Еще никто не оставлял запись к записи скачать торрент Доктор Стрэндж Doctor Strange . Будь первым!

!Обратная связь