Скачать через торрент Призрачная красота Collateral Beauty Фильм бесплатно в хорошем качестве torrent

Скачивайте на UnionPeer.org фильмы через торрент без регистрации. Новинки кино в хорошем качестве через торрент. На UnionPeer.org можно скачать через торрент фильмы 2014 и 2015 годов. Самые новые фильмы.

Скачать торрент Призрачная красота Collateral Beauty бесплатно через .torrent фильм мультфильм сериал

Статистика раздачи
Размер:  1.46 GB   |    Зарегистрирован:  7 лет 2 месяца   |    .torrent скачан:  364 раза   |   
Раздают:  1  
 

Скачать Призрачная красота / Collateral Beauty (Дэвид Фрэнкел / David Frankel) [2016, США, драма, HDRip] Dub (iTunes) через torrent

 
 
Автор Сообщение

Galfimbul

avatar Galfimbul


Призрачная красота / Collateral Beauty
«Все мы связаны»

Год выхода: 2016
Выпущено: США / Overbrook Entertainment
Жанр: драма
Продолжительность: 01:36:39
Перевод: Профессиональный (полное дублирование)
Субтитры: нет
Режиссер:
Дэвид Фрэнкел / David Frankel
В ролях:
Уилл Смит, Эдвард Нортон, Кейт Уинслет, Майкл Пенья, Хелен Миррен, Наоми Харрис, Кира Найтли, Джейкоб Латимор, Энн Дауд, Лиза Колон-Зайас
О фильме:
Главный герой работает в рекламном агентстве Нью-Йорка. Не так давно в его личной жизни произошла трагедия, ввергнувшая его в тяжелейшую депрессию. Коллеги пытаются помочь и разрабатывают нетрадиционный план по возвращению друга обратно на твёрдую почву, однако план срабатывает неожиданным образом.
Релиз групп | | IMDB | КиноПоиск | Сэмпл |
Качество: HDRip [Collateral.Beauty.2016.1080p.BluRay.x264-GECKOS]
Формат: AVI

Видео: 720x304 (2.37:1), 23.976 fps, XviD build 67 ~1763 kbps avg, 0.34 bit/pixel
Аудио: 48 kHz, AC3 Dolby Digital, 3/2 (L,C,R,l,r) + LFE ch, ~384 kbps - iTunes Russia
Общее
Полное имя                               : D:\Prizrachnaya_krasota_2016_HDRip_iT_by_Dalemake.avi
Формат                                   : AVI
Формат/Информация                        : Audio Video Interleave
Размер файла                             : 1,46 Гбайт
Продолжительность                        : 1 ч. 36 м.
Общий поток                              : 2157 Кбит/сек
Программа кодирования                    : VirtualDubMod 1.5.10.3 | www.virtualdub-fr.org || (build 2550/release)
Библиотека кодирования                   : VirtualDubMod build 2550/release

Видео
Идентификатор                            : 0
Формат                                   : MPEG-4 Visual
Профиль формата                          : Advanced Simple@L5
Параметр BVOP формата                    : 1
Параметр QPel формата                    : Нет
Параметр GMC формата                     : Без точки перехода
Параметр матрицы формата                 : Выборочная
Идентификатор кодека                     : XVID
Идентификатор кодека/Подсказка           : XviD
Продолжительность                        : 1 ч. 36 м.
Битрейт                                  : 1764 Кбит/сек
Ширина                                   : 720 пикселей
Высота                                   : 304 пикселя
Соотношение сторон                       : 2,35:1
Частота кадров                           : 23,976 кадра/сек
Цветовое пространство                    : YUV
Субдискретизация насыщенности            : 4:2:0
Битовая глубина                          : 8 бит
Тип развёртки                            : Прогрессивная
Метод сжатия                             : С потерями
Бит/(Пиксели*Кадры)                      : 0.336
Размер потока                            : 1,19 Гбайт (82%)
Библиотека кодирования                   : XviD 67

Аудио
Идентификатор                            : 1
Формат                                   : AC-3
Формат/Информация                        : Audio Coding 3
Расширение режима                        : CM (complete main)
Параметр Endianness формата              : Big
Идентификатор кодека                     : 2000
Продолжительность                        : 1 ч. 36 м.
Вид битрейта                             : Постоянный
Битрейт                                  : 384 Кбит/сек
Каналы                                   : 6 каналов
Расположение каналов                     : Front: L C R, Side: L R, LFE
Частота                                  : 48,0 КГц
Битовая глубина                          : 16 бит
Метод сжатия                             : С потерями
Размер потока                            : 265 Мбайт (18%)
Выравнивание                             : Разделение по промежуткам
Продолжительность промежутка             : 42  мс. (1,00 видеокадр)
Время предзагрузки промежутка            : 500  мс.



Внимание! AdBlock блокирует показ скриншотов, все вопросы к разработчикам )))

Трекер:  [ 02-Мар-2017 08:30 ]

  

Скачать .torrent

Размер .torrent файла 15 KB


Размер: 1.46 GB
Хэш (hash) релиза: a0d15310d81de5caa13b8b319c6821fb830c7aea
Подписка на обновления:

Торренты, похожие на Призрачная красота Collateral Beauty скачать торрент

Форум Название Автор Размер S L Добавлен
Зарубежные фильмы до 2016 ·· Призрачная красота / Collateral Beauty (Дэвид Фрэнкел / David Frankel) [2016, США, Драма, мелодрама, DVD9] R5 Dub + Sub Rus + Original Eng Galfimbul 62051287045.78 GB 0 0 1525552246

23:30

5-Май-18

Трейлеры и дополнительные материалы ·· Призрачная Красота / Collateral Beauty (Дэвид Фрэнкел / David Frankel) [2016, Драма, BDRip] дополнительные материалы Galfimbul 473456215452 MB 0 0 1491133429

14:43

2-Апр-17

Зарубежные фильмы до 2016 ·· Призрачная красота / Collateral Beauty (Дэвид Фрэнкел / David Frankel) [2016, США, драма, мелодрама, Blu-ray disc 1080p] [CEE] Dub + Sub Rus, Eng + Original Eng Galfimbul 3594481432033.48 GB 0 0 1490895966

20:46

30-Мар-17

Зарубежные фильмы до 2016 ·· Призрачная красота / Collateral Beauty (Дэвид Фрэнкел / David Frankel) [2016, США, драма, BDRip 1080p] Dub (iTunes) + Sub Rus, Eng + Original Eng Galfimbul 102514409299.55 GB 0 0 1489100100

01:55

10-Мар-17

Зарубежные фильмы до 2016 ·· Призрачная красота / Collateral Beauty (Дэвид Фрэнкел / David Frankel) [2016, США, драма, BDRip 720p] Dub (iTunes) + Sub Rus, Eng + Original Eng Galfimbul 50734506994.73 GB 0 0 1489100056

01:54

10-Мар-17

Зарубежные фильмы 2016-2019 (Новинки зарубежного кино) ·· Призрачная красота / Collateral Beauty (Дэвид Фрэнкел / David Frankel) [2016, США, драма, Blu-ray 1080p] iTunes Galfimbul 3341180850031.12 GB 0 0 1488984097

17:41

8-Мар-17

Зарубежные фильмы 2016-2019 (Новинки зарубежного кино) ·· Призрачная красота / Collateral Beauty (Дэвид Фрэнкел / David Frankel) [2016, США, драма, BDRip-AVC] Dub + Original Eng + Sub (Rus, Eng) Galfimbul 22070223972.06 GB 0 0 1488475790

20:29

2-Мар-17

Зарубежные фильмы 2016-2019 (Новинки зарубежного кино) ·· Призрачная красота / Collateral Beauty (Дэвид Фрэнкел / David Frankel) [2016, США, драма, HDRip] Dub (iTunes) Galfimbul 781138408745 MB 0 0 1488436065

09:27

2-Мар-17

Зарубежные фильмы 2016-2019 (Новинки зарубежного кино) ·· Призрачная красота / Collateral Beauty (Дэвид Фрэнкел / David Frankel) [2016, США, драма, BDRip-AVC] Dub (iTunes) Galfimbul 15227611941.42 GB 0 0 1488436047

09:27

2-Мар-17

Зарубежные фильмы 2016-2019 (Новинки зарубежного кино) ·· Призрачная красота / Collateral Beauty (Дэвид Фрэнкел) [2016, драма, BDRip 1080p] iTunes Galfimbul 84925814747.91 GB 0 0 1488321628

01:40

1-Мар-17

Зарубежные фильмы 2016-2019 (Новинки зарубежного кино) ·· Призрачная красота / Collateral Beauty (Дэвид Фрэнкел) [2016, драма, CAMRip] Galfimbul 14675128321.37 GB 0 0 1481904876

19:14

16-Дек-16

Еще никто не оставлял запись к записи скачать торрент Призрачная красота Collateral Beauty . Будь первым!

!Обратная связь