Скачать через торрент Призрачная красота Collateral Beauty Фильм бесплатно в хорошем качестве torrent

Скачивайте на UnionPeer.org фильмы через торрент без регистрации. Новинки кино в хорошем качестве через торрент. На UnionPeer.org можно скачать через торрент фильмы 2014 и 2015 годов. Самые новые фильмы.

Скачать торрент Призрачная красота Collateral Beauty бесплатно через .torrent фильм мультфильм сериал

Статистика раздачи
Размер:  2.06 GB   |    Зарегистрирован:  6 лет 11 месяцев   |    .torrent скачан:  359 раз   |   
Раздают:  1  
 

Скачать Призрачная красота / Collateral Beauty (Дэвид Фрэнкел / David Frankel) [2016, США, драма, BDRip-AVC] Dub + Original Eng + Sub (Rus, Eng) через torrent

 
 
Автор Сообщение

Galfimbul

avatar Galfimbul


Призрачная красота / Collateral Beauty
Страна: США
Жанр: драма
Год выпуска: 2016
Продолжительность: 01:36:39

Перевод: Профессиональный (дублированный)
Cубтитры: русские, английские
Оригинальная аудиодорожка: английский

Режиссер: Дэвид Фрэнкел / David Frankel

В ролях: Уилл Смит, Эдвард Нортон, Кейт Уинслет, Майкл Пенья, Хелен Миррен, Наоми Харрис, Кира Найтли, Джейкоб Латимор, Энн Дауд, Лиза Колон-Зайас

Описание: Главный герой работает в рекламном агентстве Нью-Йорка. Не так давно в его личной жизни произошла трагедия, ввергнувшая его в тяжелейшую депрессию. Коллеги пытаются помочь и разрабатывают нетрадиционный план по возвращению друга обратно на твёрдую почву, однако план срабатывает неожиданным образом.

Сэмпл: http://sendfile.su/1313803

Качество видео: BDRip-AVC (Collateral.Beauty.2016.D.BDREMUX.ExKinoRay.1080p)
Формат видео: MKV

Видео: x264, 1152x480 (2.40:1) 23,976 fps, ~2211 kbps, 0,167 bit/pixel
Аудио 1: 48 kHz, AC3 Dolby Digital, 3/2 (L,C,R,l,r) + LFE ch, ~384 kbps [русский, iTunes Russia]
Аудио 2: 48 kHz, AC3 Dolby Digital, 3/2 (L,C,R,l,r) + LFE ch, ~448 kbps [английский]
Формат субтитров: softsub (SRT)
General
Unique ID : 170872849030469833846265757733451946839 (0x808CE9E5D2690EE69E7596D61ACF5B57)
Format : Matroska
Format version : Version 4 / Version 2
File size : 2.06 GiB
Duration : 1h 36mn
Overall bit rate : 3 045 Kbps
Encoded date : UTC 2017-03-02 10:28:23
Writing application : mkvmerge v9.9.0 ('Pick Up') 64bit
Writing library : libebml v1.3.4 + libmatroska v1.4.5
Cover : Yes
Attachments : cover.jpg
Video #1
ID : 1
Format : AVC
Format/Info : Advanced Video Codec
Format profile : [email protected]
Format settings, CABAC : Yes
Format settings, ReFrames : 10 frames
Codec ID : V_MPEG4/ISO/AVC
Duration : 1h 36mn
Bit rate : 2 211 Kbps
Width : 1 152 pixels
Height : 480 pixels
Display aspect ratio : 2.40:1
Frame rate mode : Constant
Frame rate : 23.976 (24000/1001) fps
Color space : YUV
Chroma subsampling : 4:2:0
Bit depth : 8 bits
Scan type : Progressive
Bits/(Pixel*Frame) : 0.167
Stream size : 1.49 GiB (73%)
Writing library : x264 core 148 r2638 7599210
Encoding settings : cabac=1 / ref=10 / deblock=1:-3:-2 / analyse=0x3:0x133 / me=umh / subme=10 / psy=1 / psy_rd=1.00:0.00 / mixed_ref=1 / me_range=32 / chroma_me=1 / trellis=2 / 8x8dct=1 / cqm=0 / deadzone=21,11 / fast_pskip=0 / chroma_qp_offset=-2 / threads=6 / lookahead_threads=1 / sliced_threads=0 / nr=0 / decimate=1 / interlaced=0 / bluray_compat=0 / constrained_intra=0 / bframes=11 / b_pyramid=2 / b_adapt=2 / b_bias=0 / direct=1 / weightb=1 / open_gop=0 / weightp=2 / keyint=250 / keyint_min=23 / scenecut=40 / intra_refresh=0 / rc=2pass / mbtree=0 / bitrate=2211 / ratetol=1.0 / qcomp=0.65 / qpmin=0 / qpmax=69 / qpstep=4 / cplxblur=20.0 / qblur=0.5 / ip_ratio=1.40 / pb_ratio=1.30 / aq=3:0.90
Language : English
Default : Yes
Forced : No
Audio #2
ID : 2
Format : AC-3
Format/Info : Audio Coding 3
Mode extension : CM (complete main)
Format settings, Endianness : Big
Codec ID : A_AC3
Duration : 1h 36mn
Bit rate mode : Constant
Bit rate : 384 Kbps
Channel(s) : 6 channels
Channel positions : Front: L C R, Side: L R, LFE
Sampling rate : 48.0 KHz
Frame rate : 31.250 fps (1536 spf)
Compression mode : Lossy
Stream size : 265 MiB (13%)
Title : iTunes
Language : Russian
Default : Yes
Forced : No
Audio #3
ID : 3
Format : AC-3
Format/Info : Audio Coding 3
Mode extension : CM (complete main)
Format settings, Endianness : Big
Codec ID : A_AC3
Duration : 1h 36mn
Bit rate mode : Constant
Bit rate : 448 Kbps
Channel(s) : 6 channels
Channel positions : Front: L C R, Side: L R, LFE
Sampling rate : 48.0 KHz
Frame rate : 31.250 fps (1536 spf)
Compression mode : Lossy
Stream size : 310 MiB (15%)
Language : English
Default : No
Forced : No
Text #4
ID : 4
Format : UTF-8
Codec ID : S_TEXT/UTF8
Codec ID/Info : UTF-8 Plain Text
Duration : 1h 35mn
Bit rate : 1 bps
Count of elements : 19
Stream size : 923 Bytes (0%)
Title : Forced
Language : Russian
Default : Yes
Forced : No
Text #5
ID : 5
Format : UTF-8
Codec ID : S_TEXT/UTF8
Codec ID/Info : UTF-8 Plain Text
Duration : 1h 36mn
Bit rate : 96 bps
Count of elements : 1445
Stream size : 67.6 KiB (0%)
Title : iTunes
Language : Russian
Default : No
Forced : No
Text #6
ID : 6
Format : UTF-8
Codec ID : S_TEXT/UTF8
Codec ID/Info : UTF-8 Plain Text
Duration : 1h 30mn
Bit rate : 66 bps
Count of elements : 1449
Stream size : 44.1 KiB (0%)
Title : Full
Language : English
Default : No
Forced : No
Text #7
ID : 7
Format : UTF-8
Codec ID : S_TEXT/UTF8
Codec ID/Info : UTF-8 Plain Text
Duration : 1h 30mn
Bit rate : 69 bps
Count of elements : 1518
Stream size : 46.2 KiB (0%)
Title : SDH
Language : English
Default : No
Forced : No
Text #8
ID : 8
Format : UTF-8
Codec ID : S_TEXT/UTF8
Codec ID/Info : UTF-8 Plain Text
Duration : 1h 30mn
Bit rate : 77 bps
Count of elements : 1518
Stream size : 51.6 KiB (0%)
Title : SDH-Colored
Language : English
Default : No
Forced : No
raw [info]: 1152x480p 1:1 @ 24000/1001 fps (cfr)
x264 [info]: using SAR=1/1
x264 [info]: using cpu capabilities: MMX2 SSE2Fast SSSE3 SSE4.2 AVX XOP FMA4 FMA3 LZCNT BMI1
x264 [info]: profile High, level 4.1
x264 [info]: frame I:942 Avg QP:14.38 size:103007
x264 [info]: frame P:27199 Avg QP:17.15 size: 26520
x264 [info]: frame B:110901 Avg QP:19.27 size: 7065
x264 [info]: consecutive B-frames: 1.4% 1.4% 5.4% 12.9% 15.9% 49.9% 6.1% 1.8% 2.2% 0.8% 1.1% 1.2%
x264 [info]: mb I I16..4: 3.1% 79.3% 17.5%
x264 [info]: mb P I16..4: 0.4% 6.2% 0.8% P16..4: 37.4% 26.7% 21.6% 0.9% 0.3% skip: 5.6%
x264 [info]: mb B I16..4: 0.0% 0.3% 0.1% B16..8: 39.0% 12.7% 4.2% direct: 3.7% skip:40.1% L0:45.9% L1:44.8% BI: 9.3%
x264 [info]: 8x8 transform intra:82.1% inter:56.1%
x264 [info]: coded y,uvDC,uvAC intra: 94.3% 91.1% 76.6% inter: 19.7% 13.6% 3.0%
x264 [info]: i16 v,h,dc,p: 26% 13% 8% 53%
x264 [info]: i8 v,h,dc,ddl,ddr,vr,hd,vl,hu: 12% 9% 10% 9% 12% 13% 12% 11% 12%
x264 [info]: i4 v,h,dc,ddl,ddr,vr,hd,vl,hu: 12% 8% 3% 10% 15% 15% 13% 12% 12%
x264 [info]: i8c dc,h,v,p: 45% 19% 19% 17%
x264 [info]: Weighted P-Frames: Y:3.7% UV:1.9%
x264 [info]: ref P L0: 43.9% 9.6% 18.5% 6.7% 6.5% 4.3% 4.2% 2.0% 2.2% 1.8% 0.2% 0.0%
x264 [info]: ref B L0: 64.3% 14.1% 7.6% 4.3% 3.4% 2.9% 2.2% 0.9% 0.4%
x264 [info]: ref B L1: 90.5% 9.5%
x264 [info]: kb/s:2209.72

x264 [total]: encoded 139042 frames, 8.55 fps, 2209.72 kb/s


Внимание! AdBlock блокирует показ скриншотов, все вопросы к разработчикам )))
Трекер:  [ 02-Мар-2017 19:00 ]

  

Скачать .torrent

Размер .torrent файла 11 KB


Размер: 2.06 GB
Хэш (hash) релиза: db59002c418b8c824bbff28d4c937b2c50146e81
Подписка на обновления:

Торренты, похожие на Призрачная красота Collateral Beauty скачать торрент

Форум Название Автор Размер S L Добавлен
Зарубежные фильмы до 2016 ·· Призрачная красота / Collateral Beauty (Дэвид Фрэнкел / David Frankel) [2016, США, Драма, мелодрама, DVD9] R5 Dub + Sub Rus + Original Eng Galfimbul 62051287045.78 GB 0 0 1525552246

23:30

5-Май-18

Трейлеры и дополнительные материалы ·· Призрачная Красота / Collateral Beauty (Дэвид Фрэнкел / David Frankel) [2016, Драма, BDRip] дополнительные материалы Galfimbul 473456215452 MB 0 0 1491133429

14:43

2-Апр-17

Зарубежные фильмы до 2016 ·· Призрачная красота / Collateral Beauty (Дэвид Фрэнкел / David Frankel) [2016, США, драма, мелодрама, Blu-ray disc 1080p] [CEE] Dub + Sub Rus, Eng + Original Eng Galfimbul 3594481432033.48 GB 0 0 1490895966

20:46

30-Мар-17

Зарубежные фильмы до 2016 ·· Призрачная красота / Collateral Beauty (Дэвид Фрэнкел / David Frankel) [2016, США, драма, BDRip 1080p] Dub (iTunes) + Sub Rus, Eng + Original Eng Galfimbul 102514409299.55 GB 0 0 1489100100

01:55

10-Мар-17

Зарубежные фильмы до 2016 ·· Призрачная красота / Collateral Beauty (Дэвид Фрэнкел / David Frankel) [2016, США, драма, BDRip 720p] Dub (iTunes) + Sub Rus, Eng + Original Eng Galfimbul 50734506994.73 GB 0 0 1489100056

01:54

10-Мар-17

Зарубежные фильмы 2016-2019 (Новинки зарубежного кино) ·· Призрачная красота / Collateral Beauty (Дэвид Фрэнкел / David Frankel) [2016, США, драма, Blu-ray 1080p] iTunes Galfimbul 3341180850031.12 GB 0 0 1488984097

17:41

8-Мар-17

Зарубежные фильмы 2016-2019 (Новинки зарубежного кино) ·· Призрачная красота / Collateral Beauty (Дэвид Фрэнкел / David Frankel) [2016, США, драма, HDRip] Dub (iTunes) Galfimbul 15636951041.46 GB 0 0 1488436071

09:27

2-Мар-17

Зарубежные фильмы 2016-2019 (Новинки зарубежного кино) ·· Призрачная красота / Collateral Beauty (Дэвид Фрэнкел / David Frankel) [2016, США, драма, HDRip] Dub (iTunes) Galfimbul 781138408745 MB 0 0 1488436065

09:27

2-Мар-17

Зарубежные фильмы 2016-2019 (Новинки зарубежного кино) ·· Призрачная красота / Collateral Beauty (Дэвид Фрэнкел / David Frankel) [2016, США, драма, BDRip-AVC] Dub (iTunes) Galfimbul 15227611941.42 GB 0 0 1488436047

09:27

2-Мар-17

Зарубежные фильмы 2016-2019 (Новинки зарубежного кино) ·· Призрачная красота / Collateral Beauty (Дэвид Фрэнкел) [2016, драма, BDRip 1080p] iTunes Galfimbul 84925814747.91 GB 0 0 1488321628

01:40

1-Мар-17

Зарубежные фильмы 2016-2019 (Новинки зарубежного кино) ·· Призрачная красота / Collateral Beauty (Дэвид Фрэнкел) [2016, драма, CAMRip] Galfimbul 14675128321.37 GB 0 0 1481904876

19:14

16-Дек-16

Еще никто не оставлял запись к записи скачать торрент Призрачная красота Collateral Beauty . Будь первым!

!Обратная связь