Скачать через торрент Пассажиры Passengers Фильм бесплатно в хорошем качестве torrent

Скачивайте на UnionPeer.org фильмы через торрент без регистрации. Новинки кино в хорошем качестве через торрент. На UnionPeer.org можно скачать через торрент фильмы 2014 и 2015 годов. Самые новые фильмы.

Скачать торрент Пассажиры Passengers бесплатно через .torrent фильм мультфильм сериал

Статистика раздачи
Размер:  2.98 GB   |    Зарегистрирован:  7 лет   |    .torrent скачан:  245 раз   |   
Раздают:  1  
   
 
Автор Сообщение

Galfimbul

avatar Galfimbul


Пассажиры / Passengers

Слоган: «Ничто не случайно»
Страна: США
Жанр: фантастика, драма, мелодрама, приключения
Год выпуска: 2016
Продолжительность: 01:56:11

Перевод: Профессиональный (дублированный) iTunes
Оригинальная аудиодорожка: Английский
Cубтитры: Русские (Форсированные, Полные), Украинские (Форсированные, Полные), English (Full, SDH, SDH-Colored)

Режиссер: Мортен Тильдум / Morten Tyldum

В ролях: Дженнифер Лоуренс, Крис Пратт, Майкл Шин, Лоренс Фишбёрн, Энди Гарсиа, Винс Фостер, Кара Мишель Уайлдер, Конор Брофи, Джули Серда, Аврора Перрино, Кристин Брок, Крис Эджерли...

Описание: Космический корабль с 5,000 пассажиров на борту, погруженных на время полета в искусственный сон, держит курс на планету, которая станет для них новым домом. Всё идет по плану, но из-за сбоя системы двое пассажиров неожиданно просыпаются и понимают, что до конечного пункта путешествия - 90 лет пути, и им суждено остаток жизни провести вдвоем в роскошных интерьерах корабля, оснащенного по последнему слову техники. Постепенно Джима и Аврору начинает непреодолимо тянуть друг к другу, но корабль попадает в беду, и теперь в их руках - жизнь и судьба всех обитателей корабля.

Доп. информация: | IMDB | КиноПоиск | Сэмпл |

Качество видео: BDRip-AVC Passengers (2016) 1080p BD-Remux. HDClub
Формат видео: MKV

Видео: AVC, 1152x482, (2.40:1), 2643 kbps, 23.976 fps, 0.199 bit/pixel
Аудио 1: AC3 Dolby Digital, 3/2 (L,C,R,l,r) + LFE ch, 48.0 KHz, 384 Kbps | Дубляж |
Аудио 2: AC3 Dolby Digital, 2/0 (L,R) ch, 48 kHz, 192 kbps | Дубляж |
Аудио 3: AC3 Dolby Digital, 3/2 (L,C,R,l,r) + LFE ch, 48.0 KHz, 448 Kbps | Original |
Формат субтитров: softsub (SRT)
<div class="sp-wrap">
<div class="sp-head folded">x264</div>
<div class="sp-body">raw [info]: 1152x482p 1:1 @ 24000/1001 fps (cfr)
x264 [info]: using SAR=1/1
x264 [info]: using cpu capabilities: MMX2 SSE2Fast SSSE3 SSE4.2 AVX
x264 [info]: profile High, level 4.1
x264 [info]: frame I:1583 Avg QP:14.42 size: 85925
x264 [info]: frame P:36350 Avg QP:15.87 size: 30717
x264 [info]: frame B:129203 Avg QP:19.02 size: 8132
x264 [info]: consecutive B-frames: 2.1% 2.7% 6.1% 31.4% 15.4% 24.7% 5.3% 6.4% 1.0% 0.4% 3.2% 1.0% 0.1% 0.1%
x264 [info]: mb I I16..4: 11.1% 59.3% 29.6%
x264 [info]: mb P I16..4: 1.6% 12.3% 2.7% P16..4: 32.3% 28.4% 18.3% 0.0% 0.0% skip: 4.3%
x264 [info]: mb B I16..4: 0.1% 0.9% 0.2% B16..8: 37.2% 13.2% 3.3% direct: 5.4% skip:39.7% L0:42.3% L1:41.8% BI:15.9%
x264 [info]: 8x8 transform intra:71.2% inter:48.2%
x264 [info]: coded y,uvDC,uvAC intra: 90.1% 90.4% 79.3% inter: 20.0% 18.8% 7.5%
x264 [info]: i16 v,h,dc,p: 11% 22% 17% 50%
x264 [info]: i8 v,h,dc,ddl,ddr,vr,hd,vl,hu: 14% 14% 12% 7% 10% 10% 10% 10% 12%
x264 [info]: i4 v,h,dc,ddl,ddr,vr,hd,vl,hu: 23% 16% 3% 7% 11% 11% 11% 8% 10%
x264 [info]: i8c dc,h,v,p: 44% 23% 17% 16%
x264 [info]: Weighted P-Frames: Y:5.0% UV:3.7%
x264 [info]: ref P L0: 48.8% 9.4% 17.8% 6.4% 5.5% 3.6% 3.4% 1.7% 1.8% 1.5% 0.1% 0.0%
x264 [info]: ref B L0: 72.4% 12.2% 5.9% 3.2% 2.2% 1.8% 1.4% 0.7% 0.3%
x264 [info]: ref B L1: 94.0% 6.0%
x264 [info]: kb/s:2643.21
General
Unique ID : 195455636789583508876035105065123991086 (0x930B62E91815C74897F4B21327384E2E)
Complete name : Passengers (2016).mkv
Format : Matroska
Format version : Version 4 / Version 2
File size : 2.98 GiB
Duration : 1 h 56 min
Overall bit rate : 3 670 kb/s
Movie name : Пассажиры / Passengers (2016)
Encoded date : UTC 2017-03-04 08:10:10
Writing application : mkvmerge v8.1.0 ('Psychedelic Postcard') 64bit
Writing library : libebml v1.3.1 + libmatroska v1.4.2
Cover : Yes
Attachments : cover.jpg

Video
ID : 1
Format : AVC
Format/Info : Advanced Video Codec
Format profile : [email protected]
Format settings, CABAC : Yes
Format settings, ReFrames : 10 frames
Codec ID : V_MPEG4/ISO/AVC
Duration : 1 h 56 min
Bit rate : 2 643 kb/s
Width : 1 152 pixels
Height : 482 pixels
Display aspect ratio : 2.40:1
Frame rate mode : Constant
Frame rate : 23.976 (24000/1001) FPS
Color space : YUV
Chroma subsampling : 4:2:0
Bit depth : 8 bits
Scan type : Progressive
Bits/(Pixel*Frame) : 0.199
Stream size : 2.15 GiB (72%)
Title : Passengers (2016) By optik.1557
Writing library : x264 core 148 r2744kMod b97ae06
Encoding settings : cabac=1 / ref=10 / deblock=1:-2:-1 / analyse=0x3:0x113 / me=umh / subme=10 / psy=1 / fade_compensate=0.00 / psy_rd=1.03:0.19 / mixed_ref=1 / me_range=32 / chroma_me=1 / trellis=2 / 8x8dct=1 / cqm=0 / deadzone=21,11 / fast_pskip=0 / chroma_qp_offset=-3 / threads=6 / lookahead_threads=1 / sliced_threads=0 / nr=0 / decimate=1 / interlaced=0 / bluray_compat=0 / constrained_intra=0 / bframes=13 / b_pyramid=2 / b_adapt=2 / b_bias=0 / direct=1 / weightb=1 / open_gop=0 / weightp=2 / keyint=250 / keyint_min=23 / scenecut=40 / intra_refresh=0 / rc_lookahead=60 / rc=crf / mbtree=0 / crf=16.8000 / qcomp=0.60 / qpmin=0 / qpmax=69 / qpstep=4 / vbv_maxrate=50000 / vbv_bufsize=62500 / crf_max=0.0 / nal_hrd=none / filler=0 / ip_ratio=1.40 / pb_ratio=1.30 / aq=3:0.80
Language : English
Default : Yes
Forced : No

Audio #1
ID : 2
Format : AC-3
Format/Info : Audio Coding 3
Mode extension : CM (complete main)
Format settings, Endianness : Big
Codec ID : A_AC3
Duration : 1 h 56 min
Bit rate mode : Constant
Bit rate : 384 kb/s
Channel(s) : 6 channels
Channel positions : Front: L C R, Side: L R, LFE
Sampling rate : 48.0 kHz
Frame rate : 31.250 FPS (1536 spf)
Bit depth : 16 bits
Compression mode : Lossy
Stream size : 319 MiB (10%)
Title : Дубляж (iTunes)
Language : Russian
Default : Yes
Forced : No

Audio #2
ID : 3
Format : AC-3
Format/Info : Audio Coding 3
Mode extension : CM (complete main)
Format settings, Endianness : Big
Codec ID : A_AC3
Duration : 1 h 56 min
Bit rate mode : Constant
Bit rate : 192 kb/s
Channel(s) : 2 channels
Channel positions : Front: L R
Sampling rate : 48.0 kHz
Frame rate : 31.250 FPS (1536 spf)
Bit depth : 16 bits
Compression mode : Lossy
Stream size : 160 MiB (5%)
Title : Дубляж (iTunes)
Language : Ukrainian
Default : No
Forced : No

Audio #3
ID : 4
Format : AC-3
Format/Info : Audio Coding 3
Mode extension : CM (complete main)
Format settings, Endianness : Big
Codec ID : A_AC3
Duration : 1 h 56 min
Bit rate mode : Constant
Bit rate : 448 kb/s
Channel(s) : 6 channels
Channel positions : Front: L C R, Side: L R, LFE
Sampling rate : 48.0 kHz
Frame rate : 31.250 FPS (1536 spf)
Bit depth : 16 bits
Compression mode : Lossy
Stream size : 372 MiB (12%)
Title : Original
Language : English
Default : No
Forced : No

Text #1
ID : 5
Format : UTF-8
Codec ID : S_TEXT/UTF8
Codec ID/Info : UTF-8 Plain Text
Duration : 1 h 48 min
Bit rate : 1 b/s
Count of elements : 26
Stream size : 1.15 KiB (0%)
Title : Форсированные
Language : Russian
Default : Yes
Forced : No

Text #2
ID : 6
Format : UTF-8
Codec ID : S_TEXT/UTF8
Codec ID/Info : UTF-8 Plain Text
Duration : 1 h 54 min
Bit rate : 68 b/s
Count of elements : 1115
Stream size : 57.7 KiB (0%)
Language : Russian
Default : No
Forced : No

Text #3
ID : 7
Format : UTF-8
Codec ID : S_TEXT/UTF8
Codec ID/Info : UTF-8 Plain Text
Duration : 1 h 54 min
Bit rate : 0 b/s
Count of elements : 9
Stream size : 412 Bytes (0%)
Title : Форсированные
Language : Ukrainian
Default : No
Forced : No

Text #4
ID : 8
Format : UTF-8
Codec ID : S_TEXT/UTF8
Codec ID/Info : UTF-8 Plain Text
Duration : 1 h 54 min
Bit rate : 74 b/s
Count of elements : 1282
Stream size : 62.7 KiB (0%)
Language : Ukrainian
Default : No
Forced : No

Text #5
ID : 9
Format : UTF-8
Codec ID : S_TEXT/UTF8
Codec ID/Info : UTF-8 Plain Text
Duration : 1 h 43 min
Bit rate : 48 b/s
Count of elements : 1237
Stream size : 36.6 KiB (0%)
Language : English
Default : No
Forced : No

Text #6
ID : 10
Format : UTF-8
Codec ID : S_TEXT/UTF8
Codec ID/Info : UTF-8 Plain Text
Duration : 1 h 48 min
Bit rate : 57 b/s
Count of elements : 1619
Stream size : 45.3 KiB (0%)
Title : SDH
Language : English
Default : No
Forced : No

Text #7
ID : 11
Format : UTF-8
Codec ID : S_TEXT/UTF8
Codec ID/Info : UTF-8 Plain Text
Duration : 1 h 48 min
Bit rate : 78 b/s
Count of elements : 1620
Stream size : 62.7 KiB (0%)
Title : SDH-Colored
Language : English
Default : No
Forced : No

Menu
00:00:00.000 : en:1
00:07:03.673 : en:2
00:14:37.209 : en:3
00:20:32.647 : en:4
00:25:05.336 : en:5
00:30:29.660 : en:6
00:40:46.985 : en:7
00:50:22.018 : en:8
00:57:27.943 : en:9
01:02:53.810 : en:10
01:10:46.157 : en:11
01:17:47.661 : en:12
01:25:16.026 : en:13
01:31:44.039 : en:14
01:37:52.240 : en:15
01:42:17.546 : en:16</div>
</div>


Внимание! AdBlock блокирует показ скриншотов, все вопросы к разработчикам )))
Трекер:  [ 04-Мар-2017 16:00 ]

  

Скачать .torrent

Размер .torrent файла 15 KB


Размер: 2.98 GB
Хэш (hash) релиза: 36a2a29c3aaec3c24976ff85f41cf04a093fa2c2
Подписка на обновления:

Торренты, похожие на Пассажиры Passengers скачать торрент

Форум Название Автор Размер S L Добавлен
Зарубежные фильмы 2016-2019 (Новинки зарубежного кино) ·%· Пассажиры / Passengers (2016) BDRip-HEVC 1080p от HEVC-CLUB | D Galfimbul 52769281524.91 GB 0 0 1573408232

20:50

10-Ноя-19

Зарубежные фильмы 2016-2019 (Новинки зарубежного кино) ·%· Пассажиры / Passengers (2016) BDRip 1080p от New-Team & qqss44 | Лицензия Galfimbul 74589145966.95 GB 0 0 1571422820

21:20

18-Окт-19

Зарубежные фильмы 2016-2019 (Новинки зарубежного кино) ·%· Пассажиры / Passengers (2016) BDRip-HEVC 1080p от HEVC-CLUB | Лицензия Galfimbul 50118940364.67 GB 0 0 1571418034

20:00

18-Окт-19

Зарубежные фильмы 2016-2019 (Новинки зарубежного кино) ·%· Пассажиры / Passengers (2016) BDRip 720p от MediaClub | D, A Galfimbul 63990868495.96 GB 0 0 1555594812

16:40

18-Апр-19

Зарубежные фильмы 2016-2019 (Новинки зарубежного кино) ·%· Пассажиры / Passengers (2016) BDRip-AVC | D | Локализованная версия | Лицензия Galfimbul 22133809162.06 GB 0 0 1541404211

10:50

5-Ноя-18

Зарубежные фильмы 2016-2019 (Новинки зарубежного кино) ·%· Пассажиры / Passengers (2016) BDRip от ExKinoRay | Локализованная версия | Лицензия Galfimbul 15678171661.46 GB 0 0 1538777460

01:11

6-Окт-18

Зарубежные фильмы 2016-2019 (Новинки зарубежного кино) ·%· Пассажиры / Passengers (2016) BDRip от ExKinoRay | Локализованная версия | Лицензия Galfimbul 23427807222.18 GB 0 0 1538777412

01:10

6-Окт-18

Зарубежные фильмы 2016-2019 (Новинки зарубежного кино) ·· Пассажиры / Passengers (Мортен Тильдум / Morten Tyldum) [2016, США, фантастика, триллер, драма, HDRip] AVO (Смирнов) Galfimbul 15676149761.46 GB 0 0 1523732468

22:01

14-Апр-18

Зарубежные фильмы 2016-2019 (Новинки зарубежного кино) ·· Пассажиры / Passengers (Morten Tyldum Мортен Тильдум) [2016, фантастика, драма, мелодрама, BDRip 1080p] D, A | Лицензия Galfimbul 1893756038117.64 GB 0 0 1518356482

16:41

11-Фев-18

Зарубежные фильмы 2016-2019 (Новинки зарубежного кино) ·· Пассажиры / Passengers (Morten Tyldum Мортен Тильдум) [2016, фантастика, драма, мелодрама, DVD9] Лицензия Galfimbul 77627207687.23 GB 0 0 1518294032

23:20

10-Фев-18

Зарубежные фильмы 2016-2019 (Новинки зарубежного кино) ·· Пассажиры / Passengers (Morten Tyldum Мортен Тильдум) [2016, фантастика, драма, мелодрама, BDRip 2160p] Galfimbul 3783620020235.24 GB 0 0 1505195426

08:50

12-Сен-17

Зарубежные фильмы 2016-2019 (Новинки зарубежного кино) ·· Пассажиры / Passengers (Мортен Тильдум / Morten Tyldum) [2016, США, фантастика, драма, мелодрама, приключения, BDRip] AVO (Юрий Сербин) Galfimbul 15562301441.45 GB 0 0 1501295419

05:30

29-Июл-17

Зарубежные фильмы до 2016 ·· Пассажиры / Passengers (Мортен Тильдум / Morten Tyldum) [2016, США, Фантастика, драма, мелодрама, приключения, DVD5 (сжатый)] исх. R2, Dub + Sub Rus + Original Eng Galfimbul 46975754244.37 GB 0 0 1500575771

21:36

20-Июл-17

Трейлеры и дополнительные материалы ·· Пассажиры / Passengers (Morten Tyldum Мортен Тильдум) [2016, фантастика, драма, мелодрама, BDRip] дополнительные материалы Galfimbul 59030092995.5 GB 0 0 1497989366

23:09

20-Июн-17

Трейлеры и дополнительные материалы ·· Пассажиры / Passengers (Мортен Тильдум) [2016, фантастика, драма, мелодрама, BluRay] удаленные сцены Galfimbul 13049096871.22 GB 0 0 1494656164

09:16

13-Май-17

Зарубежные фильмы до 2016 ·· Пассажиры / Passengers (Мортен Тильдум / Morten Tyldum) [2016, США, фантастика, драма, мелодрама, приключения, BD> DVD9 (Custom)] DUB + AVO + Sub Rus / Eng + Original Eng Galfimbul 83417047047.77 GB 0 0 1491411248

19:54

5-Апр-17

Зарубежные фильмы до 2016 ·· Пассажиры / Passengers (Мортен Тильдум / Morten Tyldum) [2016, США, фантастика, драма, мелодрама, Blu-ray disc 1080p] [EUR] Dub + Sub Rus, Eng + Original Eng Galfimbul 4172635861038.86 GB 0 0 1490201929

19:58

22-Мар-17

Зарубежные фильмы до 2016 ·· Пассажиры / Passengers (Мортен Тильдум / Morten Tyldum) [2016, США, фантастика, драма, мелодрама, приключения, BDRip 1080p] Dub (iTunes) + Sub Rus, Ukr, Eng + Original Eng Galfimbul 1417498295113.2 GB 0 0 1489100065

01:54

10-Мар-17

Зарубежные фильмы до 2016 ·· Пассажиры / Passengers (Мортен Тильдум / Morten Tyldum) [2016, США, фантастика, драма, мелодрама, приключения, BDRip 720p] Dub (iTunes) + Sub Rus, Ukr, Eng + Original Eng Galfimbul 57552608405.36 GB 0 0 1489100039

01:53

10-Мар-17

Еще никто не оставлял запись к записи скачать торрент Пассажиры Passengers . Будь первым!

!Обратная связь