Скачать через торрент Доктор Стрэндж Doctor Strange Фильм бесплатно в хорошем качестве torrent

Скачивайте на UnionPeer.org фильмы через торрент без регистрации. Новинки кино в хорошем качестве через торрент. На UnionPeer.org можно скачать через торрент фильмы 2014 и 2015 годов. Самые новые фильмы.

Скачать торрент Доктор Стрэндж Doctor Strange бесплатно через .torrent фильм мультфильм сериал

Статистика раздачи
Размер:  7.81 GB   |    Зарегистрирован:  6 лет 11 месяцев   |    .torrent скачан:  84 раза   |   
Раздают:  1  
   
 
Автор Сообщение

Galfimbul

avatar Galfimbul


Доктор Стрэндж / Doctor Strange
За гранью сознания лежит новая реальность
Страна: США
Студия: Marvel Studios Inc., Walt Disney Studios Motion Pictures
Жанр: фантастика, фэнтези, боевик, приключения
Год выпуска: 2016
Продолжительность: 01:54:51

Перевод: Профессиональный (дублированный)
Cубтитры: русские, английские
Оригинальная аудиодорожка: английский

Режиссер: Скотт Дерриксон / Scott Derrickson

В ролях: Бенедикт Камбербэтч, Тильда Суинтон, Мадс Миккельсен, Чиветель Эджиофор, Рэйчел МакАдамс, Бенедикт Вонг, Майкл Стулбарг, Бенджамин Брэтт, Скотт Эдкинс, Зара Питиан

Описание: Страшная автокатастрофа поставила крест на карьере успешного нейрохирурга Доктора Стрэнджа. Отчаявшись, он отправляется в путешествие в поисках исцеления и открывает в себе невероятные способности к трансформации пространства и времени. Теперь он - связующее звено между параллельными измерениями, а его миссия - защищать жителей Земли и противодействовать Злу, какое бы обличие оно ни принимало.
Доп. информация: Видео, звук, чаптеры, с DOCTOR_STRANGE_REMUX_HDCLUB
Основа для меню с оригинального Blu-ray (спасибо Secrets )
Видео сжато Rhozet Carbon Coder по инструкции Mikky72.
Диск собран в DvdReMakePro.
Отдельное спасибо ZVNV , за терпение при ответе на мои вопросы.

Дополнительные / бонусные материалы:: Аудиокоментарии режиссера Скотта Дерриксона.

Меню: Есть, русское, статичное, озвученное, создано на основе исходного.
Полученный результат проверен на работоспособность на софтовом плеере Media Player Classic Home Cinema, записан на болванку с помощью ImgBurn и проверен на бытовом плеере.
Демуксинг
eac3to
HdBrStreamExtractor

Обработка видео
DGAVCDecode
Rhozet Carbon Coder

Обработка аудио
Sonic Foundry Soft Encode
DTS-HD Master Audio Suite Encoder

Создание меню, Редактирование, Авторинг и проверка
Muxman
MPEG Video Wizard DVD
DVD-lab PRO
DvdReMakePro

Субтитры
SUPread
ABBYY FineReader 11
FineReader Sub Plugin
SubtitleWorkshop
LoadPlugin("C:\Program Files (x86)\AviSynth 2.5\plugins\DGAVCDecode.dll")
AVCSource("C:\Demux\1_2_video.dga")
LoadPlugin("C:\Program Files (x86)\AviSynth 2.5\plugins\AutoYUY2.dll") #подключение плагина
AutoYUY2() # конверсия цветового пространства
LoadPlugin("C:\Program Files (x86)\AviSynth 2.5\plugins\ColorMatrix.dll") #подключение плагина
ColorMatrix(mode="Rec.709->Rec.601", inputFR=false, clamp=0) # 16-235
BicubicResize(720, 480, 0, 0.5) #ресайз методом Catmull-Rom spline
AssumeFPS ("ntsc_film") #изменение частоты кадров под стандарт NTSC




Тип релиза: BDRemux>DVD9 (Custom)
Контейнер: DVD-Video

Видео: NTSC 16:9 (720x480) VBR Auto Letterboxed ~7789 kbps, 23.976 fps
Аудио: Russian / Русский, AC3, 5.1 ch, 48 kHz, 484 kbps
Аудио 2: English / Английский, DTS, 6 ch, 48 kHz, 755 kbps
Аудио 3: English / Английский, AC3, 2 ch, 48 kHz, 320 kbps, Descriptive
Аудио 4: English / Английский, AC3, 2 ch, 48 kHz, 192 kbps, Audio Commentary by Director Scott Derrickson
Формат субтитров: softsub (SRT): Russian, English (SDH), English (Commentary), Russian (Commentary)
Title: DVDVolumeSize: 7.81 Gb ( 8 184 998,00 KBytes ) - DVD-9Enabled regions: 1, 2, 3, 4, 5, 6, 7, 8

VTS_01 : Play Length: 01:54:51 Video: NTSC 16:9 (720x480) VBR, Auto Letterboxed Audio: Russian (Dolby AC3, 6 ch) English (DTS, 6 ch) English (Dolby AC3, 2 ch) English (Dolby AC3, 2 ch) Subtitles: Russian English English Russian

* Menus Information *

VIDEO_TS MenuVideo: NTSC 16:9 (720x480) VBR Auto LetterboxedAudio: Not specified (Dolby AC3, 2 ch)English Language Unit : Title Menu

VTS_01 MenuVideo: NTSC 16:9 (720x480) VBR Auto LetterboxedAudio: Not specified (Dolby AC3, 2 ch)English Language Unit : Root Menu

---------------------------------------

ОбщееПолное имя : C:\DVDVolume\VIDEO_TS\VIDEO_TS.BUPФормат : DVD VideoПрофиль формата : MenuРазмер файла : 12,0 КбайтРежим общего битрейта : Переменный

ВидеоИдентификатор : 224 (0xE0)Формат : MPEG VideoВерсия формата : Version 2Вид битрейта : ПеременныйШирина : 720 пикселейВысота : 480 пикселейСоотношение сторон : 16:9Частота кадров : 29,970 (29970/1000) кадров/секСтандарт вещания : NTSCМетод сжатия : С потерями

АудиоФормат : AC-3Формат/Информация : Audio Coding 3Каналы : 2 каналаЧастота : 48,0 КГцМетод сжатия : С потерями

ТекстФормат : RLEФормат/Информация : Run-length encodingБитовая глубина : 2 бит

ОбщееПолное имя : C:\DVDVolume\VIDEO_TS\VIDEO_TS.IFOФормат : DVD VideoПрофиль формата : MenuРазмер файла : 12,0 КбайтРежим общего битрейта : Переменный

ВидеоИдентификатор : 224 (0xE0)Формат : MPEG VideoВерсия формата : Version 2Вид битрейта : ПеременныйШирина : 720 пикселейВысота : 480 пикселейСоотношение сторон : 16:9Частота кадров : 29,970 (29970/1000) кадров/секСтандарт вещания : NTSCМетод сжатия : С потерями

АудиоФормат : AC-3Формат/Информация : Audio Coding 3Каналы : 2 каналаЧастота : 48,0 КГцМетод сжатия : С потерями

ТекстФормат : RLEФормат/Информация : Run-length encodingБитовая глубина : 2 бит

ОбщееПолное имя : C:\DVDVolume\VIDEO_TS\VIDEO_TS.VOBФормат : MPEG-PSРазмер файла : 6,87 МбайтПродолжительность : 33 с. 66 мс.Режим общего битрейта : ПеременныйОбщий поток : 1743 Кбит/сек

ВидеоИдентификатор : 224 (0xE0)Формат : MPEG VideoВерсия формата : Version 2Профиль формата : Main@MainПараметр BVOP формата : ДаПараметр матрицы формата : По умолчаниюПараметр GOP формата : M=3, N=15Продолжительность : 33 с. 66 мс.Вид битрейта : ПеременныйБитрейт : 1516 Кбит/секМаксимальный битрейт : 2324 Кбит/секШирина : 720 пикселейВысота : 480 пикселейСоотношение сторон : 16:9Частота кадров : 29,970 (30000/1001) кадров/секСтандарт вещания : NTSCЦветовое пространство : YUVСубдискретизация насыщенности : 4:2:0Битовая глубина : 8 битТип развёртки : ПрогрессивнаяМетод сжатия : С потерямиБит/(Пиксели*Кадры) : 0.146Временной код первого кадра : 00:00:00:00Оригинал временного кода : Group of pictures headerGOP, открыто/закрыто : ЗакрытоРазмер потока : 5,98 Мбайт (87%)Основные цвета : BT.470 System MХарактеристики трансфера : BT.470 System MКоэффициенты матрицы : BT.601

АудиоИдентификатор : 189 (0xBD)-128 (0x80)Формат : AC-3Формат/Информация : Audio Coding 3Расширение режима : CM (complete main)Параметр Endianness формата : BigРежим смешивания : DVD-VideoПродолжительность : 32 с. 864 мс.Вид битрейта : ПостоянныйБитрейт : 192 Кбит/секКаналы : 2 каналаРасположение каналов : Front: L RЧастота : 48,0 КГцЧастота кадров : 31,250 кадров/сек (1536 spf)Битовая глубина : 16 битМетод сжатия : С потерямиРазмер потока : 770 Кбайт (11%)

Текст #1Идентификатор : 189 (0xBD)-32 (0x20)Формат : RLEФормат/Информация : Run-length encodingРежим смешивания : DVD-Video

Текст #2Идентификатор : 189 (0xBD)-33 (0x21)Формат : RLEФормат/Информация : Run-length encodingРежим смешивания : DVD-Video

Текст #3Идентификатор : 189 (0xBD)-34 (0x22)Формат : RLEФормат/Информация : Run-length encodingРежим смешивания : DVD-Video

Меню

ОбщееПолное имя : C:\DVDVolume\VIDEO_TS\VTS_01_0.BUPФормат : DVD VideoПрофиль формата : ProgramРазмер файла : 80,0 КбайтПродолжительность : 1 ч. 54 м.Режим общего битрейта : ПеременныйОбщий поток : 95 бит/сек

ВидеоИдентификатор : 224 (0xE0)Формат : MPEG VideoВерсия формата : Version 2Продолжительность : 1 ч. 54 м.Вид битрейта : ПеременныйШирина : 720 пикселейВысота : 480 пикселейСоотношение сторон : 16:9Частота кадров : 29,970 (29970/1000) кадров/секСтандарт вещания : NTSCМетод сжатия : С потерями

Аудио #1Идентификатор : 128 (0x80)Формат : AC-3Формат/Информация : Audio Coding 3Продолжительность : 1 ч. 54 м.Каналы : 6 каналовЧастота : 48,0 КГцМетод сжатия : С потерямиЯзык : Russian

Аудио #2Идентификатор : 137 (0x89)Формат : DTSФормат/Информация : Digital Theater SystemsПродолжительность : 1 ч. 54 м.Каналы : 6 каналовЧастота : 48,0 КГцМетод сжатия : С потерямиЯзык : English

Аудио #3Идентификатор : 130 (0x82)Формат : AC-3Формат/Информация : Audio Coding 3Продолжительность : 1 ч. 54 м.Каналы : 2 каналаЧастота : 48,0 КГцМетод сжатия : С потерямиЯзык : English

Аудио #4Идентификатор : 131 (0x83)Формат : AC-3Формат/Информация : Audio Coding 3Продолжительность : 1 ч. 54 м.Каналы : 2 каналаЧастота : 48,0 КГцМетод сжатия : С потерямиЯзык : English

Текст #1Идентификатор : 32 (0x20)Формат : RLEФормат/Информация : Run-length encodingБитовая глубина : 2 битЯзык : Russian

Текст #2Идентификатор : 33 (0x21)Формат : RLEФормат/Информация : Run-length encodingБитовая глубина : 2 битЯзык : English

Текст #3Идентификатор : 34 (0x22)Формат : RLEФормат/Информация : Run-length encodingБитовая глубина : 2 битЯзык : English

Текст #4Идентификатор : 35 (0x23)Формат : RLEФормат/Информация : Run-length encodingБитовая глубина : 2 битЯзык : Russian

МенюПродолжительность : 1 ч. 54 м.00:00:00.000 : Chapter 100:04:34.600 : Chapter 200:10:16.666 : Chapter 300:18:32.232 : Chapter 400:24:37.032 : Chapter 500:31:40.265 : Chapter 600:38:33.598 : Chapter 700:43:16.164 : Chapter 800:48:24.430 : Chapter 900:55:34.063 : Chapter 1001:05:04.329 : Chapter 1101:12:38.062 : Chapter 1201:22:14.062 : Chapter 1301:28:28.562 : Chapter 1401:35:00.462 : Chapter 1501:45:06.028 : Chapter 16List (Audio) : 0 / 1 / 2 / 3List (Subtitles 4/3) : 0 / 1 / 2 / 3List (Subtitles Wide) : 0 / 1 / 2 / 3List (Subtitles Letterbox) : 0 / 1 / 2 / 3List (Subtitles Pan&Scan) : 0 / 1 / 2 / 3

ОбщееПолное имя : C:\DVDVolume\VIDEO_TS\VTS_01_0.IFOФормат : DVD VideoПрофиль формата : ProgramРазмер файла : 80,0 КбайтПродолжительность : 1 ч. 54 м.Режим общего битрейта : ПеременныйОбщий поток : 95 бит/сек

ВидеоИдентификатор : 224 (0xE0)Формат : MPEG VideoВерсия формата : Version 2Продолжительность : 1 ч. 54 м.Вид битрейта : ПеременныйШирина : 720 пикселейВысота : 480 пикселейСоотношение сторон : 16:9Частота кадров : 29,970 (29970/1000) кадров/секСтандарт вещания : NTSCМетод сжатия : С потерями

Аудио #1Идентификатор : 128 (0x80)Формат : AC-3Формат/Информация : Audio Coding 3Продолжительность : 1 ч. 54 м.Каналы : 6 каналовЧастота : 48,0 КГцМетод сжатия : С потерямиЯзык : Russian

Аудио #2Идентификатор : 137 (0x89)Формат : DTSФормат/Информация : Digital Theater SystemsПродолжительность : 1 ч. 54 м.Каналы : 6 каналовЧастота : 48,0 КГцМетод сжатия : С потерямиЯзык : English

Аудио #3Идентификатор : 130 (0x82)Формат : AC-3Формат/Информация : Audio Coding 3Продолжительность : 1 ч. 54 м.Каналы : 2 каналаЧастота : 48,0 КГцМетод сжатия : С потерямиЯзык : English

Аудио #4Идентификатор : 131 (0x83)Формат : AC-3Формат/Информация : Audio Coding 3Продолжительность : 1 ч. 54 м.Каналы : 2 каналаЧастота : 48,0 КГцМетод сжатия : С потерямиЯзык : English

Текст #1Идентификатор : 32 (0x20)Формат : RLEФормат/Информация : Run-length encodingБитовая глубина : 2 битЯзык : Russian

Текст #2Идентификатор : 33 (0x21)Формат : RLEФормат/Информация : Run-length encodingБитовая глубина : 2 битЯзык : English

Текст #3Идентификатор : 34 (0x22)Формат : RLEФормат/Информация : Run-length encodingБитовая глубина : 2 битЯзык : English

Текст #4Идентификатор : 35 (0x23)Формат : RLEФормат/Информация : Run-length encodingБитовая глубина : 2 битЯзык : Russian

МенюПродолжительность : 1 ч. 54 м.00:00:00.000 : Chapter 100:04:34.600 : Chapter 200:10:16.666 : Chapter 300:18:32.232 : Chapter 400:24:37.032 : Chapter 500:31:40.265 : Chapter 600:38:33.598 : Chapter 700:43:16.164 : Chapter 800:48:24.430 : Chapter 900:55:34.063 : Chapter 1001:05:04.329 : Chapter 1101:12:38.062 : Chapter 1201:22:14.062 : Chapter 1301:28:28.562 : Chapter 1401:35:00.462 : Chapter 1501:45:06.028 : Chapter 16List (Audio) : 0 / 1 / 2 / 3List (Subtitles 4/3) : 0 / 1 / 2 / 3List (Subtitles Wide) : 0 / 1 / 2 / 3List (Subtitles Letterbox) : 0 / 1 / 2 / 3List (Subtitles Pan&Scan) : 0 / 1 / 2 / 3

ОбщееПолное имя : C:\DVDVolume\VIDEO_TS\VTS_01_0.VOBФормат : MPEG-PSРазмер файла : 8,46 МбайтПродолжительность : 36 с. 288 мс.Режим общего битрейта : ПеременныйОбщий поток : 1956 Кбит/сек

ВидеоИдентификатор : 224 (0xE0)Формат : MPEG VideoВерсия формата : Version 2Профиль формата : Main@MainПараметр BVOP формата : НетПараметр матрицы формата : По умолчаниюПараметр GOP формата : N=1Продолжительность : 33 мс.Вид битрейта : ПеременныйБитрейт : 1725 Кбит/секМаксимальный битрейт : 9000 Кбит/секШирина : 720 пикселейВысота : 480 пикселейСоотношение сторон : 16:9Частота кадров : 29,970 (30000/1001) кадров/секСтандарт вещания : NTSCЦветовое пространство : YUVСубдискретизация насыщенности : 4:2:0Битовая глубина : 8 битТип развёртки : ПрогрессивнаяПорядок развёртки : Верхнее поле первоеМетод сжатия : С потерямиБит/(Пиксели*Кадры) : 0.167Размер потока : 7,03 Кбайт (0%)Основные цвета : BT.601 NTSCХарактеристики трансфера : BT.601Коэффициенты матрицы : BT.601

АудиоИдентификатор : 189 (0xBD)-128 (0x80)Формат : AC-3Формат/Информация : Audio Coding 3Расширение режима : CM (complete main)Параметр Endianness формата : BigРежим смешивания : DVD-VideoПродолжительность : 36 с. 288 мс.Вид битрейта : ПостоянныйБитрейт : 192 Кбит/секКаналы : 2 каналаРасположение каналов : Front: L RЧастота : 48,0 КГцЧастота кадров : 31,250 кадров/сек (1536 spf)Битовая глубина : 16 битМетод сжатия : С потерямиРазмер потока : 851 Кбайт (10%)

Текст #1Идентификатор : 189 (0xBD)-32 (0x20)Формат : RLEФормат/Информация : Run-length encodingРежим смешивания : DVD-Video

Текст #2Идентификатор : 189 (0xBD)-33 (0x21)Формат : RLEФормат/Информация : Run-length encodingРежим смешивания : DVD-Video

Текст #3Идентификатор : 189 (0xBD)-34 (0x22)Формат : RLEФормат/Информация : Run-length encodingРежим смешивания : DVD-Video

Меню

ОбщееПолное имя : C:\DVDVolume\VIDEO_TS\VTS_01_1.VOBФормат : MPEG-PSРазмер файла : 1000 МбайтПродолжительность : 14 м. 26 с.Режим общего битрейта : ПеременныйОбщий поток : 9677 Кбит/сек

ВидеоИдентификатор : 224 (0xE0)Формат : MPEG VideoВерсия формата : Version 2Профиль формата : Main@MainПараметр BVOP формата : ДаПараметр матрицы формата : ВыборочнаяПараметр GOP формата : VariableПродолжительность : 14 м. 26 с.Вид битрейта : ПеременныйБитрейт : 7769 Кбит/секМаксимальный битрейт : 8000 Кбит/секШирина : 720 пикселейВысота : 480 пикселейСоотношение сторон : 16:9Частота кадров : 23,976 (24000/1001) кадра/секЦветовое пространство : YUVСубдискретизация насыщенности : 4:2:0Битовая глубина : 8 битТип развёртки : ПрогрессивнаяПорядок развёртки : 2:3 PulldownМетод сжатия : С потерямиБит/(Пиксели*Кадры) : 0.938Временной код первого кадра : 00:00:00:00Оригинал временного кода : Group of pictures headerРазмер потока : 803 Мбайт (80%)

Аудио #1Идентификатор : 189 (0xBD)-128 (0x80)Формат : AC-3Формат/Информация : Audio Coding 3Расширение режима : CM (complete main)Параметр Endianness формата : BigРежим смешивания : DVD-VideoПродолжительность : 14 м. 26 с.Вид битрейта : ПостоянныйБитрейт : 448 Кбит/секКаналы : 6 каналовРасположение каналов : Front: L C R, Side: L R, LFEЧастота : 48,0 КГцЧастота кадров : 31,250 кадров/сек (1536 spf)Битовая глубина : 16 битМетод сжатия : С потерямиРазмер потока : 46,3 Мбайт (5%)

Аудио #2Идентификатор : 189 (0xBD)-130 (0x82)Формат : AC-3Формат/Информация : Audio Coding 3Расширение режима : CM (complete main)Параметр Endianness формата : BigРежим смешивания : DVD-VideoПродолжительность : 14 м. 26 с.Вид битрейта : ПостоянныйБитрейт : 320 Кбит/секКаналы : 2 каналаРасположение каналов : Front: L RЧастота : 48,0 КГцЧастота кадров : 31,250 кадров/сек (1536 spf)Битовая глубина : 16 битМетод сжатия : С потерямиРазмер потока : 33,1 Мбайт (3%)

Аудио #3Идентификатор : 189 (0xBD)-131 (0x83)Формат : AC-3Формат/Информация : Audio Coding 3Расширение режима : CM (complete main)Параметр Endianness формата : BigРежим смешивания : DVD-VideoПродолжительность : 14 м. 26 с.Вид битрейта : ПостоянныйБитрейт : 192 Кбит/секКаналы : 2 каналаРасположение каналов : Front: L RЧастота : 48,0 КГцЧастота кадров : 31,250 кадров/сек (1536 spf)Битовая глубина : 16 битМетод сжатия : С потерямиРазмер потока : 19,8 Мбайт (2%)

Аудио #4Идентификатор : 189 (0xBD)-137 (0x89)Формат : DTSФормат/Информация : Digital Theater SystemsРежим : 16Параметр Endianness формата : BigРежим смешивания : DVD-VideoПродолжительность : 14 м. 26 с.Вид битрейта : ПостоянныйБитрейт : 755 Кбит/секКаналы : 6 каналовРасположение каналов : Front: L C R, Side: L R, LFEЧастота : 48,0 КГцЧастота кадров : 93,750 кадра/сек (512 spf)Битовая глубина : 24 битМетод сжатия : С потерямиРазмер потока : 78,0 Мбайт (8%)

Текст #1Идентификатор : 189 (0xBD)-34 (0x22)Формат : RLEФормат/Информация : Run-length encodingРежим смешивания : DVD-VideoПродолжительность : 14 м. 21 с.Задержка видео : 5 с. 71 мс.

Текст #2Идентификатор : 189 (0xBD)-35 (0x23)Формат : RLEФормат/Информация : Run-length encodingРежим смешивания : DVD-VideoПродолжительность : 14 м. 21 с.Задержка видео : 5 с. 71 мс.

Текст #3Идентификатор : 189 (0xBD)-32 (0x20)Формат : RLEФормат/Информация : Run-length encodingРежим смешивания : DVD-VideoПродолжительность : 14 м. 21 с.

Текст #4Идентификатор : 189 (0xBD)-33 (0x21)Формат : RLEФормат/Информация : Run-length encodingРежим смешивания : DVD-VideoПродолжительность : 14 м. 21 с.

МенюПродолжительность : 14 м. 21 с.

ОбщееПолное имя : C:\DVDVolume\VIDEO_TS\VTS_01_2.VOBФормат : MPEG-PSРазмер файла : 1000 МбайтПродолжительность : 14 м. 14 с.Режим общего битрейта : ПеременныйОбщий поток : 9821 Кбит/сек

ВидеоИдентификатор : 224 (0xE0)Формат : MPEG VideoВерсия формата : Version 2Профиль формата : Main@MainПараметр BVOP формата : ДаПараметр матрицы формата : ВыборочнаяПараметр GOP формата : VariableПродолжительность : 14 м. 14 с.Вид битрейта : ПеременныйБитрейт : 7911 Кбит/секМаксимальный битрейт : 8000 Кбит/секШирина : 720 пикселейВысота : 480 пикселейСоотношение сторон : 16:9Частота кадров : 23,976 (24000/1001) кадра/секЦветовое пространство : YUVСубдискретизация насыщенности : 4:2:0Битовая глубина : 8 битТип развёртки : ПрогрессивнаяПорядок развёртки : 2:3 PulldownМетод сжатия : С потерямиБит/(Пиксели*Кадры) : 0.955Временной код первого кадра : 00:14:26:04Оригинал временного кода : Group of pictures headerРазмер потока : 806 Мбайт (81%)

Аудио #1Идентификатор : 189 (0xBD)-128 (0x80)Формат : AC-3Формат/Информация : Audio Coding 3Расширение режима : CM (complete main)Параметр Endianness формата : BigРежим смешивания : DVD-VideoПродолжительность : 14 м. 14 с.Вид битрейта : ПостоянныйБитрейт : 448 Кбит/секКаналы : 6 каналовРасположение каналов : Front: L C R, Side: L R, LFEЧастота : 48,0 КГцЧастота кадров : 31,250 кадров/сек (1536 spf)Битовая глубина : 16 битМетод сжатия : С потерямиЗадержка видео : -166 мс.Размер потока : 45,6 Мбайт (5%)

Аудио #2Идентификатор : 189 (0xBD)-130 (0x82)Формат : AC-3Формат/Информация : Audio Coding 3Расширение режима : CM (complete main)Параметр Endianness формата : BigРежим смешивания : DVD-VideoПродолжительность : 14 м. 14 с.Вид битрейта : ПостоянныйБитрейт : 320 Кбит/секКаналы : 2 каналаРасположение каналов : Front: L RЧастота : 48,0 КГцЧастота кадров : 31,250 кадров/сек (1536 spf)Битовая глубина : 16 битМетод сжатия : С потерямиЗадержка видео : -134 мс.Размер потока : 32,6 Мбайт (3%)

Аудио #3Идентификатор : 189 (0xBD)-131 (0x83)Формат : AC-3Формат/Информация : Audio Coding 3Расширение режима : CM (complete main)Параметр Endianness формата : BigРежим смешивания : DVD-VideoПродолжительность : 14 м. 14 с.Вид битрейта : ПостоянныйБитрейт : 192 Кбит/секКаналы : 2 каналаРасположение каналов : Front: L RЧастота : 48,0 КГцЧастота кадров : 31,250 кадров/сек (1536 spf)Битовая глубина : 16 битМетод сжатия : С потерямиЗадержка видео : -102 мс.Размер потока : 19,6 Мбайт (2%)

Аудио #4Идентификатор : 189 (0xBD)-137 (0x89)Формат : DTSФормат/Информация : Digital Theater SystemsРежим : 16Параметр Endianness формата : BigРежим смешивания : DVD-VideoПродолжительность : 14 м. 14 с.Вид битрейта : ПостоянныйБитрейт : 755 Кбит/секКаналы : 6 каналовРасположение каналов : Front: L C R, Side: L R, LFEЧастота : 48,0 КГцЧастота кадров : 93,750 кадра/сек (512 spf)Битовая глубина : 24 битМетод сжатия : С потерямиЗадержка видео : -188 мс.Размер потока : 76,9 Мбайт (8%)

Текст #1Идентификатор : 189 (0xBD)-32 (0x20)Формат : RLEФормат/Информация : Run-length encodingРежим смешивания : DVD-VideoПродолжительность : 14 м. 13 с.Задержка видео : 284 мс.

Текст #2Идентификатор : 189 (0xBD)-33 (0x21)Формат : RLEФормат/Информация : Run-length encodingРежим смешивания : DVD-VideoПродолжительность : 14 м. 13 с.Задержка видео : 317 мс.

Текст #3Идентификатор : 189 (0xBD)-34 (0x22)Формат : RLEФормат/Информация : Run-length encodingРежим смешивания : DVD-VideoПродолжительность : 14 м. 13 с.Задержка видео : 3 с. 287 мс.

Текст #4Идентификатор : 189 (0xBD)-35 (0x23)Формат : RLEФормат/Информация : Run-length encodingРежим смешивания : DVD-VideoПродолжительность : 14 м. 13 с.Задержка видео : 3 с. 254 мс.

МенюПродолжительность : 14 м. 13 с.

ОбщееПолное имя : C:\DVDVolume\VIDEO_TS\VTS_01_3.VOBФормат : MPEG-PSРазмер файла : 1000 МбайтПродолжительность : 14 м. 28 с.Режим общего битрейта : ПеременныйОбщий поток : 9661 Кбит/сек

ВидеоИдентификатор : 224 (0xE0)Формат : MPEG VideoВерсия формата : Version 2Профиль формата : Main@MainПараметр BVOP формата : ДаПараметр матрицы формата : ВыборочнаяПараметр GOP формата : M=3, N=12Продолжительность : 14 м. 28 с.Вид битрейта : ПеременныйБитрейт : 7754 Кбит/секМаксимальный битрейт : 8000 Кбит/секШирина : 720 пикселейВысота : 480 пикселейСоотношение сторон : 16:9Частота кадров : 23,976 (24000/1001) кадра/секЦветовое пространство : YUVСубдискретизация насыщенности : 4:2:0Битовая глубина : 8 битТип развёртки : ПрогрессивнаяПорядок развёртки : 2:3 PulldownМетод сжатия : С потерямиБит/(Пиксели*Кадры) : 0.936Временной код первого кадра : 00:28:39:24Оригинал временного кода : Group of pictures headerGOP, открыто/закрыто : ОткрытоРазмер потока : 803 Мбайт (80%)

Аудио #1Идентификатор : 189 (0xBD)-128 (0x80)Формат : AC-3Формат/Информация : Audio Coding 3Расширение режима : CM (complete main)Параметр Endianness формата : BigРежим смешивания : DVD-VideoПродолжительность : 14 м. 28 с.Вид битрейта : ПостоянныйБитрейт : 448 Кбит/секКаналы : 6 каналовРасположение каналов : Front: L C R, Side: L R, LFEЧастота : 48,0 КГцЧастота кадров : 31,250 кадров/сек (1536 spf)Битовая глубина : 16 битМетод сжатия : С потерямиЗадержка видео : -242 мс.Размер потока : 46,4 Мбайт (5%)

Аудио #2Идентификатор : 189 (0xBD)-130 (0x82)Формат : AC-3Формат/Информация : Audio Coding 3Расширение режима : CM (complete main)Параметр Endianness формата : BigРежим смешивания : DVD-VideoПродолжительность : 14 м. 28 с.Вид битрейта : ПостоянныйБитрейт : 320 Кбит/секКаналы : 2 каналаРасположение каналов : Front: L RЧастота : 48,0 КГцЧастота кадров : 31,250 кадров/сек (1536 spf)Битовая глубина : 16 битМетод сжатия : С потерямиЗадержка видео : -210 мс.Размер потока : 33,1 Мбайт (3%)

Аудио #3Идентификатор : 189 (0xBD)-131 (0x83)Формат : AC-3Формат/Информация : Audio Coding 3Расширение режима : CM (complete main)Параметр Endianness формата : BigРежим смешивания : DVD-VideoПродолжительность : 14 м. 28 с.Вид битрейта : ПостоянныйБитрейт : 192 Кбит/секКаналы : 2 каналаРасположение каналов : Front: L RЧастота : 48,0 КГцЧастота кадров : 31,250 кадров/сек (1536 spf)Битовая глубина : 16 битМетод сжатия : С потерямиЗадержка видео : -146 мс.Размер потока : 19,9 Мбайт (2%)

Аудио #4Идентификатор : 189 (0xBD)-137 (0x89)Формат : DTSФормат/Информация : Digital Theater SystemsРежим : 16Параметр Endianness формата : BigРежим смешивания : DVD-VideoПродолжительность : 14 м. 28 с.Вид битрейта : ПостоянныйБитрейт : 755 Кбит/секКаналы : 6 каналовРасположение каналов : Front: L C R, Side: L R, LFEЧастота : 48,0 КГцЧастота кадров : 93,750 кадра/сек (512 spf)Битовая глубина : 24 битМетод сжатия : С потерямиЗадержка видео : -242 мс.Размер потока : 78,1 Мбайт (8%)

Текст #1Идентификатор : 189 (0xBD)-32 (0x20)Формат : RLEФормат/Информация : Run-length encodingРежим смешивания : DVD-VideoПродолжительность : 14 м. 26 с.Задержка видео : 634 мс.

Текст #2Идентификатор : 189 (0xBD)-33 (0x21)Формат : RLEФормат/Информация : Run-length encodingРежим смешивания : DVD-VideoПродолжительность : 14 м. 26 с.Задержка видео : 667 мс.

Текст #3Идентификатор : 189 (0xBD)-34 (0x22)Формат : RLEФормат/Информация : Run-length encodingРежим смешивания : DVD-VideoПродолжительность : 14 м. 26 с.Задержка видео : 501 мс.

Текст #4Идентификатор : 189 (0xBD)-35 (0x23)Формат : RLEФормат/Информация : Run-length encodingРежим смешивания : DVD-VideoПродолжительность : 14 м. 26 с.Задержка видео : 501 мс.

МенюПродолжительность : 14 м. 26 с.

ОбщееПолное имя : C:\DVDVolume\VIDEO_TS\VTS_01_4.VOBФормат : MPEG-PSРазмер файла : 1000 МбайтПродолжительность : 14 м. 51 с.Режим общего битрейта : ПеременныйОбщий поток : 9407 Кбит/сек

ВидеоИдентификатор : 224 (0xE0)Формат : MPEG VideoВерсия формата : Version 2Профиль формата : Main@MainПараметр BVOP формата : ДаПараметр матрицы формата : ВыборочнаяПараметр GOP формата : VariableПродолжительность : 14 м. 51 с.Вид битрейта : ПеременныйБитрейт : 7505 Кбит/секМаксимальный битрейт : 8000 Кбит/секШирина : 720 пикселейВысота : 480 пикселейСоотношение сторон : 16:9Частота кадров : 23,976 (24000/1001) кадра/секЦветовое пространство : YUVСубдискретизация насыщенности : 4:2:0Битовая глубина : 8 битТип развёртки : ПрогрессивнаяПорядок развёртки : 2:3 PulldownМетод сжатия : С потерямиБит/(Пиксели*Кадры) : 0.906Временной код первого кадра : 00:43:07:08Оригинал временного кода : Group of pictures headerРазмер потока : 797 Мбайт (80%)

Аудио #1Идентификатор : 189 (0xBD)-128 (0x80)Формат : AC-3Формат/Информация : Audio Coding 3Расширение режима : CM (complete main)Параметр Endianness формата : BigРежим смешивания : DVD-VideoПродолжительность : 14 м. 51 с.Вид битрейта : ПостоянныйБитрейт : 448 Кбит/секКаналы : 6 каналовРасположение каналов : Front: L C R, Side: L R, LFEЧастота : 48,0 КГцЧастота кадров : 31,250 кадров/сек (1536 spf)Битовая глубина : 16 битМетод сжатия : С потерямиЗадержка видео : -257 мс.Размер потока : 47,6 Мбайт (5%)

Аудио #2Идентификатор : 189 (0xBD)-130 (0x82)Формат : AC-3Формат/Информация : Audio Coding 3Расширение режима : CM (complete main)Параметр Endianness формата : BigРежим смешивания : DVD-VideoПродолжительность : 14 м. 51 с.Вид битрейта : ПостоянныйБитрейт : 320 Кбит/секКаналы : 2 каналаРасположение каналов : Front: L RЧастота : 48,0 КГцЧастота кадров : 31,250 кадров/сек (1536 spf)Битовая глубина : 16 битМетод сжатия : С потерямиЗадержка видео : -257 мс.Размер потока : 34,0 Мбайт (3%)

Аудио #3Идентификатор : 189 (0xBD)-131 (0x83)Формат : AC-3Формат/Информация : Audio Coding 3Расширение режима : CM (complete main)Параметр Endianness формата : BigРежим смешивания : DVD-VideoПродолжительность : 14 м. 51 с.Вид битрейта : ПостоянныйБитрейт : 192 Кбит/секКаналы : 2 каналаРасположение каналов : Front: L RЧастота : 48,0 КГцЧастота кадров : 31,250 кадров/сек (1536 spf)Битовая глубина : 16 битМетод сжатия : С потерямиЗадержка видео : -193 мс.Размер потока : 20,4 Мбайт (2%)

Аудио #4Идентификатор : 189 (0xBD)-137 (0x89)Формат : DTSФормат/Информация : Digital Theater SystemsРежим : 16Параметр Endianness формата : BigРежим смешивания : DVD-VideoПродолжительность : 14 м. 51 с.Вид битрейта : ПостоянныйБитрейт : 755 Кбит/секКаналы : 6 каналовРасположение каналов : Front: L C R, Side: L R, LFEЧастота : 48,0 КГцЧастота кадров : 93,750 кадра/сек (512 spf)Битовая глубина : 24 битМетод сжатия : С потерямиЗадержка видео : -289 мс.Размер потока : 80,2 Мбайт (8%)

Текст #1Идентификатор : 189 (0xBD)-33 (0x21)Формат : RLEФормат/Информация : Run-length encodingРежим смешивания : DVD-VideoПродолжительность : 14 м. 40 с.Задержка видео : 9 с. 376 мс.

Текст #2Идентификатор : 189 (0xBD)-34 (0x22)Формат : RLEФормат/Информация : Run-length encodingРежим смешивания : DVD-VideoПродолжительность : 14 м. 40 с.Задержка видео : 2 с. 236 мс.

Текст #3Идентификатор : 189 (0xBD)-35 (0x23)Формат : RLEФормат/Информация : Run-length encodingРежим смешивания : DVD-VideoПродолжительность : 14 м. 40 с.Задержка видео : 2 с. 202 мс.

МенюПродолжительность : 14 м. 40 с.

ОбщееПолное имя : C:\DVDVolume\VIDEO_TS\VTS_01_5.VOBФормат : MPEG-PSРазмер файла : 1000 МбайтПродолжительность : 14 м. 17 с.Режим общего битрейта : ПеременныйОбщий поток : 9780 Кбит/сек

ВидеоИдентификатор : 224 (0xE0)Формат : MPEG VideoВерсия формата : Version 2Профиль формата : Main@MainПараметр BVOP формата : ДаПараметр матрицы формата : ВыборочнаяПараметр GOP формата : M=3, N=12Продолжительность : 14 м. 17 с.Вид битрейта : ПеременныйБитрейт : 7871 Кбит/секМаксимальный битрейт : 8000 Кбит/секШирина : 720 пикселейВысота : 480 пикселейСоотношение сторон : 16:9Частота кадров : 23,976 (24000/1001) кадра/секЦветовое пространство : YUVСубдискретизация насыщенности : 4:2:0Битовая глубина : 8 битТип развёртки : ПрогрессивнаяПорядок развёртки : 2:3 PulldownМетод сжатия : С потерямиБит/(Пиксели*Кадры) : 0.950Временной код первого кадра : 00:57:57:21Оригинал временного кода : Group of pictures headerGOP, открыто/закрыто : ОткрытоРазмер потока : 805 Мбайт (80%)

Аудио #1Идентификатор : 189 (0xBD)-128 (0x80)Формат : AC-3Формат/Информация : Audio Coding 3Расширение режима : CM (complete main)Параметр Endianness формата : BigРежим смешивания : DVD-VideoПродолжительность : 14 м. 17 с.Вид битрейта : ПостоянныйБитрейт : 448 Кбит/секКаналы : 6 каналовРасположение каналов : Front: L C R, Side: L R, LFEЧастота : 48,0 КГцЧастота кадров : 31,250 кадров/сек (1536 spf)Битовая глубина : 16 битМетод сжатия : С потерямиЗадержка видео : -238 мс.Размер потока : 45,8 Мбайт (5%)

Аудио #2Идентификатор : 189 (0xBD)-130 (0x82)Формат : AC-3Формат/Информация : Audio Coding 3Расширение режима : CM (complete main)Параметр Endianness формата : BigРежим смешивания : DVD-VideoПродолжительность : 14 м. 17 с.Вид битрейта : ПостоянныйБитрейт : 320 Кбит/секКаналы : 2 каналаРасположение каналов : Front: L RЧастота : 48,0 КГцЧастота кадров : 31,250 кадров/сек (1536 spf)Битовая глубина : 16 битМетод сжатия : С потерямиЗадержка видео : -206 мс.Размер потока : 32,7 Мбайт (3%)

Аудио #3Идентификатор : 189 (0xBD)-131 (0x83)Формат : AC-3Формат/Информация : Audio Coding 3Расширение режима : CM (complete main)Параметр Endianness формата : BigРежим смешивания : DVD-VideoПродолжительность : 14 м. 17 с.Вид битрейта : ПостоянныйБитрейт : 192 Кбит/секКаналы : 2 каналаРасположение каналов : Front: L RЧастота : 48,0 КГцЧастота кадров : 31,250 кадров/сек (1536 spf)Битовая глубина : 16 битМетод сжатия : С потерямиЗадержка видео : -110 мс.Размер потока : 19,6 Мбайт (2%)

Аудио #4Идентификатор : 189 (0xBD)-137 (0x89)Формат : DTSФормат/Информация : Digital Theater SystemsРежим : 16Параметр Endianness формата : BigРежим смешивания : DVD-VideoПродолжительность : 14 м. 17 с.Вид битрейта : ПостоянныйБитрейт : 755 Кбит/секКаналы : 6 каналовРасположение каналов : Front: L C R, Side: L R, LFEЧастота : 48,0 КГцЧастота кадров : 93,750 кадра/сек (512 spf)Битовая глубина : 24 битМетод сжатия : С потерямиЗадержка видео : -259 мс.Размер потока : 77,2 Мбайт (8%)

Текст #1Идентификатор : 189 (0xBD)-33 (0x21)Формат : RLEФормат/Информация : Run-length encodingРежим смешивания : DVD-VideoПродолжительность : 14 м. 10 с.Задержка видео : 4 с. 821 мс.

Текст #2Идентификатор : 189 (0xBD)-34 (0x22)Формат : RLEФормат/Информация : Run-length encodingРежим смешивания : DVD-VideoПродолжительность : 14 м. 10 с.Задержка видео : 2 с. 919 мс.

Текст #3Идентификатор : 189 (0xBD)-35 (0x23)Формат : RLEФормат/Информация : Run-length encodingРежим смешивания : DVD-VideoПродолжительность : 14 м. 10 с.Задержка видео : 2 с. 919 мс.

Текст #4Идентификатор : 189 (0xBD)-32 (0x20)Формат : RLEФормат/Информация : Run-length encodingРежим смешивания : DVD-VideoПродолжительность : 14 м. 10 с.

МенюПродолжительность : 14 м. 10 с.

ОбщееПолное имя : C:\DVDVolume\VIDEO_TS\VTS_01_6.VOBФормат : MPEG-PSРазмер файла : 1000 МбайтПродолжительность : 14 м. 16 с.Режим общего битрейта : ПеременныйОбщий поток : 9798 Кбит/сек

ВидеоИдентификатор : 224 (0xE0)Формат : MPEG VideoВерсия формата : Version 2Профиль формата : Main@MainПараметр BVOP формата : ДаПараметр матрицы формата : ВыборочнаяПараметр GOP формата : M=3, N=12Продолжительность : 14 м. 16 с.Вид битрейта : ПеременныйБитрейт : 7888 Кбит/секМаксимальный битрейт : 8000 Кбит/секШирина : 720 пикселейВысота : 480 пикселейСоотношение сторон : 16:9Частота кадров : 23,976 (24000/1001) кадра/секЦветовое пространство : YUVСубдискретизация насыщенности : 4:2:0Битовая глубина : 8 битТип развёртки : ПрогрессивнаяПорядок развёртки : 2:3 PulldownМетод сжатия : С потерямиБит/(Пиксели*Кадры) : 0.952Временной код первого кадра : 01:12:14:21Оригинал временного кода : Group of pictures headerGOP, открыто/закрыто : ОткрытоРазмер потока : 805 Мбайт (80%)

Аудио #1Идентификатор : 189 (0xBD)-128 (0x80)Формат : AC-3Формат/Информация : Audio Coding 3Расширение режима : CM (complete main)Параметр Endianness формата : BigРежим смешивания : DVD-VideoПродолжительность : 14 м. 16 с.Вид битрейта : ПостоянныйБитрейт : 448 Кбит/секКаналы : 6 каналовРасположение каналов : Front: L C R, Side: L R, LFEЧастота : 48,0 КГцЧастота кадров : 31,250 кадров/сек (1536 spf)Битовая глубина : 16 битМетод сжатия : С потерямиЗадержка видео : -270 мс.Размер потока : 45,7 Мбайт (5%)

Аудио #2Идентификатор : 189 (0xBD)-130 (0x82)Формат : AC-3Формат/Информация : Audio Coding 3Расширение режима : CM (complete main)Параметр Endianness формата : BigРежим смешивания : DVD-VideoПродолжительность : 14 м. 16 с.Вид битрейта : ПостоянныйБитрейт : 320 Кбит/секКаналы : 2 каналаРасположение каналов : Front: L RЧастота : 48,0 КГцЧастота кадров : 31,250 кадров/сек (1536 spf)Битовая глубина : 16 битМетод сжатия : С потерямиЗадержка видео : -270 мс.Размер потока : 32,7 Мбайт (3%)

Аудио #3Идентификатор : 189 (0xBD)-131 (0x83)Формат : AC-3Формат/Информация : Audio Coding 3Расширение режима : CM (complete main)Параметр Endianness формата : BigРежим смешивания : DVD-VideoПродолжительность : 14 м. 16 с.Вид битрейта : ПостоянныйБитрейт : 192 Кбит/секКаналы : 2 каналаРасположение каналов : Front: L RЧастота : 48,0 КГцЧастота кадров : 31,250 кадров/сек (1536 spf)Битовая глубина : 16 битМетод сжатия : С потерямиЗадержка видео : -174 мс.Размер потока : 19,6 Мбайт (2%)

Аудио #4Идентификатор : 189 (0xBD)-137 (0x89)Формат : DTSФормат/Информация : Digital Theater SystemsРежим : 16Параметр Endianness формата : BigРежим смешивания : DVD-VideoПродолжительность : 14 м. 16 с.Вид битрейта : ПостоянныйБитрейт : 755 Кбит/секКаналы : 6 каналовРасположение каналов : Front: L C R, Side: L R, LFEЧастота : 48,0 КГцЧастота кадров : 93,750 кадра/сек (512 spf)Битовая глубина : 24 битМетод сжатия : С потерямиЗадержка видео : -280 мс.Размер потока : 77,0 Мбайт (8%)

Текст #1Идентификатор : 189 (0xBD)-32 (0x20)Формат : RLEФормат/Информация : Run-length encodingРежим смешивания : DVD-VideoПродолжительность : 14 м. 13 с.Задержка видео : 7 с. 925 мс.

Текст #2Идентификатор : 189 (0xBD)-33 (0x21)Формат : RLEФормат/Информация : Run-length encodingРежим смешивания : DVD-VideoПродолжительность : 14 м. 13 с.Задержка видео : 7 с. 925 мс.

Текст #3Идентификатор : 189 (0xBD)-34 (0x22)Формат : RLEФормат/Информация : Run-length encodingРежим смешивания : DVD-VideoПродолжительность : 14 м. 13 с.Задержка видео : 1 с. 152 мс.

Текст #4Идентификатор : 189 (0xBD)-35 (0x23)Формат : RLEФормат/Информация : Run-length encodingРежим смешивания : DVD-VideoПродолжительность : 14 м. 13 с.Задержка видео : 1 с. 152 мс.

МенюПродолжительность : 14 м. 13 с.

ОбщееПолное имя : C:\DVDVolume\VIDEO_TS\VTS_01_7.VOBФормат : MPEG-PSРазмер файла : 1000 МбайтПродолжительность : 14 м. 18 с.Режим общего битрейта : ПеременныйОбщий поток : 9765 Кбит/сек

ВидеоИдентификатор : 224 (0xE0)Формат : MPEG VideoВерсия формата : Version 2Профиль формата : Main@MainПараметр BVOP формата : ДаПараметр матрицы формата : ВыборочнаяПараметр GOP формата : M=3, N=12Продолжительность : 14 м. 18 с.Вид битрейта : ПеременныйБитрейт : 7856 Кбит/секМаксимальный битрейт : 8000 Кбит/секШирина : 720 пикселейВысота : 480 пикселейСоотношение сторон : 16:9Частота кадров : 23,976 (24000/1001) кадра/секЦветовое пространство : YUVСубдискретизация насыщенности : 4:2:0Битовая глубина : 8 битТип развёртки : ПрогрессивнаяПорядок развёртки : 2:3 PulldownМетод сжатия : С потерямиБит/(Пиксели*Кадры) : 0.948Временной код первого кадра : 01:26:30:06Оригинал временного кода : Group of pictures headerGOP, открыто/закрыто : ОткрытоРазмер потока : 804 Мбайт (80%)

Аудио #1Идентификатор : 189 (0xBD)-128 (0x80)Формат : AC-3Формат/Информация : Audio Coding 3Расширение режима : CM (complete main)Параметр Endianness формата : BigРежим смешивания : DVD-VideoПродолжительность : 14 м. 18 с.Вид битрейта : ПостоянныйБитрейт : 448 Кбит/секКаналы : 6 каналовРасположение каналов : Front: L C R, Side: L R, LFEЧастота : 48,0 КГцЧастота кадров : 31,250 кадров/сек (1536 spf)Битовая глубина : 16 битМетод сжатия : С потерямиЗадержка видео : -242 мс.Размер потока : 45,9 Мбайт (5%)

Аудио #2Идентификатор : 189 (0xBD)-130 (0x82)Формат : AC-3Формат/Информация : Audio Coding 3Расширение режима : CM (complete main)Параметр Endianness формата : BigРежим смешивания : DVD-VideoПродолжительность : 14 м. 18 с.Вид битрейта : ПостоянныйБитрейт : 320 Кбит/секКаналы : 2 каналаРасположение каналов : Front: L RЧастота : 48,0 КГцЧастота кадров : 31,250 кадров/сек (1536 spf)Битовая глубина : 16 битМетод сжатия : С потерямиЗадержка видео : -242 мс.Размер потока : 32,8 Мбайт (3%)

Аудио #3Идентификатор : 189 (0xBD)-131 (0x83)Формат : AC-3Формат/Информация : Audio Coding 3Расширение режима : CM (complete main)Параметр Endianness формата : BigРежим смешивания : DVD-VideoПродолжительность : 14 м. 18 с.Вид битрейта : ПостоянныйБитрейт : 192 Кбит/секКаналы : 2 каналаРасположение каналов : Front: L RЧастота : 48,0 КГцЧастота кадров : 31,250 кадров/сек (1536 spf)Битовая глубина : 16 битМетод сжатия : С потерямиЗадержка видео : -146 мс.Размер потока : 19,7 Мбайт (2%)

Аудио #4Идентификатор : 189 (0xBD)-137 (0x89)Формат : DTSФормат/Информация : Digital Theater SystemsРежим : 16Параметр Endianness формата : BigРежим смешивания : DVD-VideoПродолжительность : 14 м. 18 с.Вид битрейта : ПостоянныйБитрейт : 755 Кбит/секКаналы : 6 каналовРасположение каналов : Front: L C R, Side: L R, LFEЧастота : 48,0 КГцЧастота кадров : 93,750 кадра/сек (512 spf)Битовая глубина : 24 битМетод сжатия : С потерямиЗадержка видео : -274 мс.Размер потока : 77,3 Мбайт (8%)

Текст #1Идентификатор : 189 (0xBD)-32 (0x20)Формат : RLEФормат/Информация : Run-length encodingРежим смешивания : DVD-VideoПродолжительность : 14 м. 5 с.Задержка видео : 8 с. 592 мс.

Текст #2Идентификатор : 189 (0xBD)-33 (0x21)Формат : RLEФормат/Информация : Run-length encodingРежим смешивания : DVD-VideoПродолжительность : 14 м. 5 с.Задержка видео : 8 с. 659 мс.

Текст #3Идентификатор : 189 (0xBD)-34 (0x22)Формат : RLEФормат/Информация : Run-length encodingРежим смешивания : DVD-VideoПродолжительность : 14 м. 5 с.Задержка видео : 651 мс.

Текст #4Идентификатор : 189 (0xBD)-35 (0x23)Формат : RLEФормат/Информация : Run-length encodingРежим смешивания : DVD-VideoПродолжительность : 14 м. 5 с.Задержка видео : 617 мс.

МенюПродолжительность : 14 м. 5 с.

ОбщееПолное имя : C:\DVDVolume\VIDEO_TS\VTS_01_8.VOBФормат : MPEG-PSРазмер файла : 977 МбайтПродолжительность : 14 м. 4 с.Режим общего битрейта : ПеременныйОбщий поток : 9711 Кбит/сек

ВидеоИдентификатор : 224 (0xE0)Формат : MPEG VideoВерсия формата : Version 2Профиль формата : Main@MainПараметр BVOP формата : ДаПараметр матрицы формата : ВыборочнаяПараметр GOP формата : M=3, N=12Продолжительность : 14 м. 4 с.Вид битрейта : ПеременныйБитрейт : 7804 Кбит/секМаксимальный битрейт : 8000 Кбит/секШирина : 720 пикселейВысота : 480 пикселейСоотношение сторон : 16:9Частота кадров : 23,976 (24000/1001) кадра/секЦветовое пространство : YUVСубдискретизация насыщенности : 4:2:0Битовая глубина : 8 битТип развёртки : ПрогрессивнаяПорядок развёртки : 2:3 PulldownМетод сжатия : С потерямиБит/(Пиксели*Кадры) : 0.942Временной код первого кадра : 01:40:48:09Оригинал временного кода : Group of pictures headerGOP, открыто/закрыто : ОткрытоРазмер потока : 785 Мбайт (80%)

Аудио #1Идентификатор : 189 (0xBD)-128 (0x80)Формат : AC-3Формат/Информация : Audio Coding 3Расширение режима : CM (complete main)Параметр Endianness формата : BigРежим смешивания : DVD-VideoПродолжительность : 14 м. 4 с.Вид битрейта : ПостоянныйБитрейт : 448 Кбит/секКаналы : 6 каналовРасположение каналов : Front: L C R, Side: L R, LFEЧастота : 48,0 КГцЧастота кадров : 31,250 кадров/сек (1536 spf)Битовая глубина : 16 битМетод сжатия : С потерямиЗадержка видео : -271 мс.Размер потока : 45,1 Мбайт (5%)

Аудио #2Идентификатор : 189 (0xBD)-130 (0x82)Формат : AC-3Формат/Информация : Audio Coding 3Расширение режима : CM (complete main)Параметр Endianness формата : BigРежим смешивания : DVD-VideoПродолжительность : 14 м. 4 с.Вид битрейта : ПостоянныйБитрейт : 320 Кбит/секКаналы : 2 каналаРасположение каналов : Front: L RЧастота : 48,0 КГцЧастота кадров : 31,250 кадров/сек (1536 spf)Битовая глубина : 16 битМетод сжатия : С потерямиЗадержка видео : -239 мс.Размер потока : 32,2 Мбайт (3%)

Аудио #3Идентификатор : 189 (0xBD)-131 (0x83)Формат : AC-3Формат/Информация : Audio Coding 3Расширение режима : CM (complete main)Параметр Endianness формата : BigРежим смешивания : DVD-VideoПродолжительность : 14 м. 4 с.Вид битрейта : ПостоянныйБитрейт : 192 Кбит/секКаналы : 2 каналаРасположение каналов : Front: L RЧастота : 48,0 КГцЧастота кадров : 31,250 кадров/сек (1536 spf)Битовая глубина : 16 битМетод сжатия : С потерямиЗадержка видео : -175 мс.Размер потока : 19,3 Мбайт (2%)

Аудио #4Идентификатор : 189 (0xBD)-137 (0x89)Формат : DTSФормат/Информация : Digital Theater SystemsРежим : 16Параметр Endianness формата : BigРежим смешивания : DVD-VideoПродолжительность : 14 м. 4 с.Вид битрейта : ПостоянныйБитрейт : 755 Кбит/секКаналы : 6 каналовРасположение каналов : Front: L C R, Side: L R, LFEЧастота : 48,0 КГцЧастота кадров : 93,750 кадра/сек (512 spf)Битовая глубина : 24 битМетод сжатия : С потерямиЗадержка видео : -292 мс.Размер потока : 75,9 Мбайт (8%)

Текст #1Идентификатор : 189 (0xBD)-33 (0x21)Формат : RLEФормат/Информация : Run-length encodingРежим смешивания : DVD-VideoПродолжительность : 13 м. 44 с.Задержка видео : 2 с. 837 мс.

Текст #2Идентификатор : 189 (0xBD)-34 (0x22)Формат : RLEФормат/Информация : Run-length encodingРежим смешивания : DVD-VideoПродолжительность : 13 м. 44 с.Задержка видео : 3 с. 771 мс.

Текст #3Идентификатор : 189 (0xBD)-35 (0x23)Формат : RLEФормат/Информация : Run-length encodingРежим смешивания : DVD-VideoПродолжительность : 13 м. 44 с.Задержка видео : 3 с. 737 мс.

Текст #4Идентификатор : 189 (0xBD)-32 (0x20)Формат : RLEФормат/Информация : Run-length encodingРежим смешивания : DVD-VideoПродолжительность : 13 м. 44 с.

МенюПродолжительность : 13 м. 44 с.

---------------------------------------
Total   Video
Title                                                           Codec   Length  Movie Size      Disc Size       Bitrate Bitrate Main Audio Track                          Secondary Audio Track
-----                                                           ------  ------- --------------  --------------  ------- ------- ------------------                        ---------------------
00800.MPLS                                                      AVC     1:54:58 0               47 123 276 373  0,00    0,00    DTS-HD Master 7.1 (48kHz/24-bit)
DISC INFO:

Disc Title:     DOCTOR_STRANGE_EUR
Disc Size:      47 123 276 373 bytes
Protection:     AACS
BD-Java:        Yes
BDInfo:         0.5.8

PLAYLIST REPORT:

Name:                   00800.MPLS
Length:                 1:54:58.558 (h:m:s.ms)
Size:                   0 bytes
Total Bitrate:          0,00 Mbps

VIDEO:

Codec                   Bitrate             Description
-----                   -------             -----------
MPEG-4 AVC Video        0 kbps              1080p / 23,976 fps / 16:9 / High Profile 4.1

AUDIO:

Codec                           Language        Bitrate         Description
-----                           --------        -------         -----------
DTS-HD Master Audio             English         0 kbps          7.1 / 48 kHz / 24-bit (DTS Core: 5.1 / 48 kHz / 1509 kbps / 24-bit)
DTS-HD High-Res Audio           French          2046 kbps       5.1 / 48 kHz / 2046 kbps / 24-bit (DTS Core: 5.1 / 48 kHz / 1509 kbps / 24-bit)
Dolby Digital Audio             Russian         640 kbps        5.1 / 48 kHz / 640 kbps
Dolby Digital Audio             English         192 kbps        2.0 / 48 kHz / 192 kbps / DN -4dB

SUBTITLES:

Codec                           Language        Bitrate         Description
-----                           --------        -------         -----------
Presentation Graphics           English         0,000 kbps
Presentation Graphics           French          0,000 kbps
Presentation Graphics           Russian         0,000 kbps
Presentation Graphics           Dutch           0,000 kbps
Presentation Graphics           English         0,000 kbps
Presentation Graphics           French          0,000 kbps
Presentation Graphics           Russian         0,000 kbps
Presentation Graphics           Dutch           0,000 kbps
Presentation Graphics           French          0,000 kbps
Presentation Graphics           Russian         0,000 kbps

FILES:

Name            Time In         Length          Size            Total Bitrate
----            -------         ------          ----            -------------
00801.M2TS      0:00:00.000     1:54:58.558     0               0

CHAPTERS:

Number          Time In         Length          Avg Video Rate  Max 1-Sec Rate  Max 1-Sec Time  Max 5-Sec Rate  Max 5-Sec Time  Max 10Sec Rate  Max 10Sec Time  Avg Frame Size  Max Frame Size  Max Frame Time
------          -------         ------          --------------  --------------  --------------  --------------  --------------  --------------  --------------  --------------  --------------  --------------
1               0:00:00.000     0:04:34.565     0 kbps          0 kbps          00:00:00.000    0 kbps          00:00:00.000    0 kbps          00:00:00.000    0 bytes         0 bytes         00:00:00.000
2               0:04:34.565     0:05:42.258     0 kbps          0 kbps          00:00:00.000    0 kbps          00:00:00.000    0 kbps          00:00:00.000    0 bytes         0 bytes         00:00:00.000
3               0:10:16.824     0:08:15.328     0 kbps          0 kbps          00:00:00.000    0 kbps          00:00:00.000    0 kbps          00:00:00.000    0 bytes         0 bytes         00:00:00.000
4               0:18:32.152     0:06:04.864     0 kbps          0 kbps          00:00:00.000    0 kbps          00:00:00.000    0 kbps          00:00:00.000    0 bytes         0 bytes         00:00:00.000
5               0:24:37.017     0:07:03.464     0 kbps          0 kbps          00:00:00.000    0 kbps          00:00:00.000    0 kbps          00:00:00.000    0 bytes         0 bytes         00:00:00.000
6               0:31:40.481     0:06:53.329     0 kbps          0 kbps          00:00:00.000    0 kbps          00:00:00.000    0 kbps          00:00:00.000    0 bytes         0 bytes         00:00:00.000
7               0:38:33.811     0:04:42.323     0 kbps          0 kbps          00:00:00.000    0 kbps          00:00:00.000    0 kbps          00:00:00.000    0 bytes         0 bytes         00:00:00.000
8               0:43:16.135     0:05:08.391     0 kbps          0 kbps          00:00:00.000    0 kbps          00:00:00.000    0 kbps          00:00:00.000    0 bytes         0 bytes         00:00:00.000
9               0:48:24.526     0:07:09.971     0 kbps          0 kbps          00:00:00.000    0 kbps          00:00:00.000    0 kbps          00:00:00.000    0 bytes         0 bytes         00:00:00.000
10              0:55:34.497     0:09:29.860     0 kbps          0 kbps          00:00:00.000    0 kbps          00:00:00.000    0 kbps          00:00:00.000    0 bytes         0 bytes         00:00:00.000
11              1:05:04.358     0:07:34.078     0 kbps          0 kbps          00:00:00.000    0 kbps          00:00:00.000    0 kbps          00:00:00.000    0 bytes         0 bytes         00:00:00.000
12              1:12:38.437     0:09:35.908     0 kbps          0 kbps          00:00:00.000    0 kbps          00:00:00.000    0 kbps          00:00:00.000    0 bytes         0 bytes         00:00:00.000
13              1:22:14.346     0:06:14.290     0 kbps          0 kbps          00:00:00.000    0 kbps          00:00:00.000    0 kbps          00:00:00.000    0 bytes         0 bytes         00:00:00.000
14              1:28:28.636     0:06:32.266     0 kbps          0 kbps          00:00:00.000    0 kbps          00:00:00.000    0 kbps          00:00:00.000    0 bytes         0 bytes         00:00:00.000
15              1:35:00.903     0:10:05.605     0 kbps          0 kbps          00:00:00.000    0 kbps          00:00:00.000    0 kbps          00:00:00.000    0 bytes         0 bytes         00:00:00.000
16              1:45:06.508     0:09:52.049     0 kbps          0 kbps          00:00:00.000    0 kbps          00:00:00.000    0 kbps          00:00:00.000    0 bytes         0 bytes         00:00:00.000

STREAM DIAGNOSTICS:

File            PID             Type            Codec           Language                Seconds                 Bitrate                 Bytes           Packets
----            ---             ----            -----           --------                --------------          --------------          -------------   -----
00801.M2TS      4113 (0x1011)   0x1B            AVC                                     0                       0                       0               0
00801.M2TS      4352 (0x1100)   0x86            DTS-HD MA       eng (English)           0                       0                       0               0
00801.M2TS      4353 (0x1101)   0x85            DTS-HD HR       fra (French)            0                       0                       0               0
00801.M2TS      4354 (0x1102)   0x81            AC3             rus (Russian)           0                       0                       0               0
00801.M2TS      4355 (0x1103)   0x81            AC3             eng (English)           0                       0                       0               0
00801.M2TS      4608 (0x1200)   0x90            PGS             eng (English)           0                       0                       0               0
00801.M2TS      4609 (0x1201)   0x90            PGS             fra (French)            0                       0                       0               0
00801.M2TS      4610 (0x1202)   0x90            PGS             rus (Russian)           0                       0                       0               0
00801.M2TS      4611 (0x1203)   0x90            PGS             nld (Dutch)             0                       0                       0               0
00801.M2TS      4612 (0x1204)   0x90            PGS             eng (English)           0                       0                       0               0
00801.M2TS      4613 (0x1205)   0x90            PGS             fra (French)            0                       0                       0               0
00801.M2TS      4614 (0x1206)   0x90            PGS             rus (Russian)           0                       0                       0               0
00801.M2TS      4615 (0x1207)   0x90            PGS             nld (Dutch)             0                       0                       0               0
00801.M2TS      4616 (0x1208)   0x90            PGS             fra (French)            0                       0                       0               0
00801.M2TS      4617 (0x1209)   0x90            PGS             rus (Russian)           0                       0                       0               0

Внимание! AdBlock блокирует показ скриншотов, все вопросы к разработчикам )))
Трекер:  [ 04-Мар-2017 19:30 ]

  

Скачать .torrent

Размер .torrent файла 40 KB


Размер: 7.81 GB
Хэш (hash) релиза: c1c449033dbc07e38dcff168e892d31a2aac158f
Подписка на обновления:

Торренты, похожие на Доктор Стрэндж Doctor Strange скачать торрент

Форум Название Автор Размер S L Добавлен
Зарубежные фильмы 2016-2019 (Новинки зарубежного кино) ·· Доктор Стрэндж / Doctor Strange (2016) UHD BDRip-HEVC 2160p | 4K | HDR | D, A Galfimbul 2153853041620.06 GB 0 0 1582146008

00:00

20-Фев-20

Зарубежные фильмы 2016-2019 (Новинки зарубежного кино) ·%· Доктор Стрэндж / Doctor Strange (2016) UHD BDRemux 2160p от ExKinoRay | HDR | D, A Galfimbul 7029109811565.46 GB 0 0 1569684612

18:30

28-Сен-19

Зарубежные фильмы 2016-2019 (Новинки зарубежного кино) ·%· Доктор Стрэндж / Doctor Strange (2016) UHD BDRemux 2160p от ExKinoRay | HDR | D, L1, A Galfimbul 6655151668161.98 GB 0 0 1569671415

14:50

28-Сен-19

Зарубежные фильмы 2016-2019 (Новинки зарубежного кино) ·%· Доктор Стрэндж / Doctor Strange (2016) WEB-DLRip-AVC | D | Open Matte Galfimbul 24544406442.29 GB 0 0 1561810822

15:20

29-Июн-19

Зарубежные фильмы 2016-2019 (Новинки зарубежного кино) ·%· Доктор Стрэндж / Doctor Strange (2016) BDRip-HEVC 720p | D Galfimbul 22056735842.05 GB 0 0 1561673411

01:10

28-Июн-19

Зарубежные фильмы 2016-2019 (Новинки зарубежного кино) ·%· Доктор Стрэндж / Doctor Strange (2016) WEB-DLRip 720p от SuperMin | D | Open Matte Galfimbul 28333138452.64 GB 0 0 1558713012

18:50

24-Май-19

Зарубежные фильмы 2016-2019 (Новинки зарубежного кино) ·%· Доктор Стрэндж / Doctor Strange (2016) BDRip-HEVC 1080p от M@kSIMus | Лицензия | IMAX Galfimbul 84855974697.9 GB 0 0 1547111423

12:10

10-Янв-19

Зарубежные фильмы 2016-2019 (Новинки зарубежного кино) ·%· Доктор Стрэндж / Doctor Strange (2016) BDRip-AVC от MediaClub | D, A Galfimbul 37737688593.51 GB 0 0 1546185033

18:50

30-Дек-18

Зарубежные фильмы до 2016 ·%· Доктор Стрэндж / Doctor Strange (Скотт Дерриксон / Scott Derrickson) [2016, США, Фантастика, фэнтези, боевик, приключения, DVD5 (сжатый)] исх. R5, Dub + Sub Rus + Original Eng Galfimbul 46776668164.36 GB 0 0 1531162955

22:02

9-Июл-18

Зарубежные фильмы 2016-2019 (Новинки зарубежного кино) ·· Доктор Стрэндж / Doctor Strange (Скотт Дерриксон / Scott Derrickson) [2016, США, фантастика, боевик, приключения, BDRip] AVO (Юрий Живов) Galfimbul 22039019522.05 GB 0 0 1527003010

18:30

22-Май-18

Зарубежные фильмы до 2016 ·· Доктор Стрэндж / Doctor Strange (Скотт Дерриксон / Scott Derrickson) [2016, США, Фантастика, фэнтези, боевик, приключения, DVD9] R5 Dub + Sub Rus + Original Eng Galfimbul 68324249606.36 GB 0 0 1524751326

17:02

26-Апр-18

Зарубежные фильмы 2016-2019 (Новинки зарубежного кино) ·· Доктор Стрэндж / Doctor Strange (Скотт Дерриксон / Scott Derrickson) [2016, США, фантастика, фэнтези, боевик, приключения, BDRip] AVO (Сербин) Galfimbul 15676293121.46 GB 0 0 1508079679

18:01

15-Окт-17

3D Фильмы, кино ·· Доктор Стрэндж / Doctor Strange 3D (Скотт Дерриксон / Scott Derrickson) [2016, фантастика, фэнтези, боевик, приключения, BDRip] [IMAX Edition] Half SideBySide / Горизонтальная анаморфная стереопара Galfimbul 102815348969.58 GB 0 0 1504819890

00:31

8-Сен-17

Трейлеры и дополнительные материалы ·· Доктор Стрэндж / Doctor Strange (Скотт Дерриксон) [2016, Фантастика | Боевик | Приключения, BDRip 720p] дополнительные материалы Galfimbul 28467301752.65 GB 0 0 1488404838

00:47

2-Мар-17

Зарубежные фильмы до 2016 ·· Доктор Стрэндж / Doctor Strange (Скотт Дерриксон / Scott Derrickson) [2016, США, фантастика, фэнтези, боевик, приключения, BDRip 1080p] Dub (BD EUR) + Sub Rus, Eng + Original Eng Galfimbul 1776521253816.55 GB 0 0 1488327526

03:18

1-Мар-17

Зарубежные фильмы 2016-2019 (Новинки зарубежного кино) ·· Доктор Стрэндж / Doctor Strange (2016) Blu-Ray EUR 1080p | Лицензия Galfimbul 4712327557343.89 GB 0 0 1488312700

23:11

28-Фев-17

Зарубежные фильмы 2016-2019 (Новинки зарубежного кино) ·· Доктор Стрэндж / Doctor Strange (Скотт Дерриксон / Scott Derrickson) [2016, США, фантастика, фэнтези, боевик, BDRip-AVC] Dub + Original + Sub (rus, eng) Galfimbul 31353994272.92 GB 0 0 1488016576

12:56

25-Фев-17

Зарубежные фильмы 2016-2019 (Новинки зарубежного кино) ·· Доктор Стрэндж / Doctor Strange (Скотт Дерриксон / Scott Derrickson) [2016, США, фантастика, фэнтези, боевик, приключения, BDRip-AVC] [IMAX Edition] Dub (iTunes) + Sub Rus, Eng + Original Eng Galfimbul 38423024493.58 GB 0 0 1488016549

12:55

25-Фев-17

Зарубежные фильмы 2016-2019 (Новинки зарубежного кино) ·· Доктор Стрэндж / Doctor Strange (Скотт Дерриксон / Scott Derrickson) [2016, США, фантастика, фэнтези, боевик, приключения, BDRip-AVC] [IMAX Edition] Dub (iTunes) + Sub Rus, Eng + Original Eng Galfimbul 20844164431.94 GB 0 0 1488016543

12:55

25-Фев-17

Еще никто не оставлял запись к записи скачать торрент Доктор Стрэндж Doctor Strange . Будь первым!

!Обратная связь