Скачать через торрент Пазманский дьявол Bleed for This Фильм бесплатно в хорошем качестве torrent

Скачивайте на UnionPeer.org фильмы через торрент без регистрации. Новинки кино в хорошем качестве через торрент. На UnionPeer.org можно скачать через торрент фильмы 2014 и 2015 годов. Самые новые фильмы.

Скачать торрент Пазманский дьявол Bleed for This бесплатно через .torrent фильм мультфильм сериал

Статистика раздачи
Размер:  2.18 GB   |    Зарегистрирован:  6 лет 11 месяцев   |    .torrent скачан:  154 раза   |   
Раздают:  1  
 

Скачать Пазманский дьявол / Bleed for This (Бен Янгер / Ben Younger) [2016, США, драма, биография, спорт, BDRip-AVC] Dub + Original Eng + Sub Eng через torrent

 
 
Автор Сообщение

Galfimbul

avatar Galfimbul


Пазманский дьявол / Bleed for This
Страна: США
Жанр: драма, биография, спорт
Год выпуска: 2016
Продолжительность: 01:57:03

Перевод: Профессиональный (дублированный)
Cубтитры: английские
Оригинальная аудиодорожка: английский

Режиссер: Бен Янгер / Ben Younger

В ролях: Майлз Теллер, Аарон Экхарт, Кэти Сагал, Киаран Хайндс, Тед Левайн, Джордан Гелбер, Аманда Клэйтон, Дэниэл Саули, Кристин Евангелиста, Тина Каскиани

Описание: Винни Пациенца — один из самых выдающихся чемпионов по боксу. Молодой, яркий, безрассудный… Его называли Пазманским дьяволом. Его карьера была на самом пике, но страшная авария в одночасье разрушила все планы. Врачи говорили, что он больше никогда не сможет ходить. Однако Винни решил вернуться на ринг во что бы то ни стало.

Сэмпл: http://sendfile.su/1314740

Качество видео: BDRip-AVC (Bleed.for.This.2016.BDREMUX.1080p.ExKinoRay)
Формат видео: MKV

Видео: x264, 1132x474 (2.40:1) 23,976 fps, ~1839 kbps, 0,143 bit/pixel
Аудио 1: 48 kHz, AC3 Dolby Digital, 3/2 (L,C,R,l,r) + LFE ch, ~384 kbps [русский, iTunes Russia]
Аудио 2: 48 kHz, AC3 Dolby Digital, 3/2 (L,C,R,l,r) + LFE ch, ~448 kbps [английский]
Формат субтитров: softsub (SRT)
General
Unique ID : 240163251230540223520648436685098726768 (0xB4ADC27C43C4F089A05409067F243570)
Format : Matroska
Format version : Version 4 / Version 2
File size : 2.18 GiB
Duration : 1h 57mn
Overall bit rate : 2 672 Kbps
Encoded date : UTC 2017-03-05 05:41:33
Writing application : mkvmerge v9.9.0 ('Pick Up') 64bit
Writing library : libebml v1.3.4 + libmatroska v1.4.5
Cover : Yes
Attachments : cover.jpg
Video #1
ID : 1
Format : AVC
Format/Info : Advanced Video Codec
Format profile : [email protected]
Format settings, CABAC : Yes
Format settings, ReFrames : 10 frames
Codec ID : V_MPEG4/ISO/AVC
Duration : 1h 57mn
Bit rate : 1 839 Kbps
Width : 1 132 pixels
Height : 474 pixels
Display aspect ratio : 2.40:1
Frame rate mode : Constant
Frame rate : 23.976 (24000/1001) fps
Color space : YUV
Chroma subsampling : 4:2:0
Bit depth : 8 bits
Scan type : Progressive
Bits/(Pixel*Frame) : 0.143
Stream size : 1.50 GiB (69%)
Writing library : x264 core 148 r2638 7599210
Encoding settings : cabac=1 / ref=10 / deblock=1:-3:-2 / analyse=0x3:0x133 / me=umh / subme=10 / psy=1 / psy_rd=1.00:0.00 / mixed_ref=1 / me_range=32 / chroma_me=1 / trellis=2 / 8x8dct=1 / cqm=0 / deadzone=21,11 / fast_pskip=0 / chroma_qp_offset=-2 / threads=6 / lookahead_threads=1 / sliced_threads=0 / nr=0 / decimate=1 / interlaced=0 / bluray_compat=0 / constrained_intra=0 / bframes=10 / b_pyramid=2 / b_adapt=2 / b_bias=0 / direct=1 / weightb=1 / open_gop=0 / weightp=2 / keyint=250 / keyint_min=23 / scenecut=40 / intra_refresh=0 / rc=2pass / mbtree=0 / bitrate=1839 / ratetol=1.0 / qcomp=0.65 / qpmin=0 / qpmax=69 / qpstep=4 / cplxblur=20.0 / qblur=0.5 / ip_ratio=1.40 / pb_ratio=1.30 / aq=3:0.90
Language : English
Default : Yes
Forced : No
Audio #2
ID : 2
Format : AC-3
Format/Info : Audio Coding 3
Mode extension : CM (complete main)
Format settings, Endianness : Big
Codec ID : A_AC3
Duration : 1h 57mn
Bit rate mode : Constant
Bit rate : 384 Kbps
Channel(s) : 6 channels
Channel positions : Front: L C R, Side: L R, LFE
Sampling rate : 48.0 KHz
Frame rate : 31.250 fps (1536 spf)
Compression mode : Lossy
Stream size : 321 MiB (14%)
Title : iTunes
Language : Russian
Default : Yes
Forced : No
Audio #3
ID : 3
Format : AC-3
Format/Info : Audio Coding 3
Mode extension : CM (complete main)
Format settings, Endianness : Big
Codec ID : A_AC3
Duration : 1h 57mn
Bit rate mode : Constant
Bit rate : 448 Kbps
Channel(s) : 6 channels
Channel positions : Front: L C R, Side: L R, LFE
Sampling rate : 48.0 KHz
Frame rate : 31.250 fps (1536 spf)
Compression mode : Lossy
Stream size : 375 MiB (17%)
Language : English
Default : No
Forced : No
Text #4
ID : 4
Format : UTF-8
Codec ID : S_TEXT/UTF8
Codec ID/Info : UTF-8 Plain Text
Duration : 1h 51mn
Bit rate : 62 bps
Count of elements : 1531
Stream size : 50.7 KiB (0%)
Title : Full
Language : English
Default : No
Forced : No
Text #5
ID : 5
Format : UTF-8
Codec ID : S_TEXT/UTF8
Codec ID/Info : UTF-8 Plain Text
Duration : 1h 52mn
Bit rate : 64 bps
Count of elements : 1681
Stream size : 53.1 KiB (0%)
Title : SDH
Language : English
Default : No
Forced : No
Text #6
ID : 6
Format : UTF-8
Codec ID : S_TEXT/UTF8
Codec ID/Info : UTF-8 Plain Text
Duration : 1h 54mn
Bit rate : 76 bps
Count of elements : 1682
Stream size : 64.0 KiB (0%)
Title : SDH [Colored]
Language : English
Default : No
Forced : No
raw [info]: 1132x474p 1:1 @ 24000/1001 fps (cfr)
x264 [info]: using SAR=1/1
x264 [info]: using cpu capabilities: MMX2 SSE2Fast SSSE3 SSE4.2 AVX XOP FMA4 FMA3 LZCNT BMI1
x264 [info]: profile High, level 4.1
x264 [info]: frame I:1138 Avg QP:16.58 size: 71068
x264 [info]: frame P:41370 Avg QP:20.33 size: 18619
x264 [info]: frame B:125875 Avg QP:22.40 size: 6050
x264 [info]: consecutive B-frames: 3.9% 4.8% 14.4% 15.6% 16.1% 33.1% 5.5% 2.0% 1.9% 1.2% 1.4%
x264 [info]: mb I I16..4: 7.6% 76.4% 16.0%
x264 [info]: mb P I16..4: 1.2% 7.8% 1.4% P16..4: 45.3% 21.7% 14.8% 0.4% 0.1% skip: 7.5%
x264 [info]: mb B I16..4: 0.1% 0.4% 0.1% B16..8: 44.4% 10.6% 2.5% direct: 3.6% skip:38.3% L0:44.8% L1:47.7% BI: 7.5%
x264 [info]: 8x8 transform intra:75.0% inter:69.7%
x264 [info]: coded y,uvDC,uvAC intra: 82.8% 79.3% 54.7% inter: 19.0% 14.8% 3.5%
x264 [info]: i16 v,h,dc,p: 28% 21% 3% 47%
x264 [info]: i8 v,h,dc,ddl,ddr,vr,hd,vl,hu: 10% 9% 4% 10% 15% 14% 14% 12% 11%
x264 [info]: i4 v,h,dc,ddl,ddr,vr,hd,vl,hu: 11% 9% 2% 9% 16% 15% 15% 11% 11%
x264 [info]: i8c dc,h,v,p: 39% 22% 19% 20%
x264 [info]: Weighted P-Frames: Y:11.2% UV:6.9%
x264 [info]: ref P L0: 46.7% 10.3% 17.9% 6.5% 5.2% 3.8% 3.4% 2.0% 1.9% 1.8% 0.6% 0.1%
x264 [info]: ref B L0: 70.3% 12.8% 6.4% 3.4% 2.4% 2.0% 1.7% 0.8% 0.3%
x264 [info]: ref B L1: 91.7% 8.3%
x264 [info]: kb/s:1837.06

x264 [total]: encoded 168383 frames, 8.04 fps, 1837.06 kb/s


Внимание! AdBlock блокирует показ скриншотов, все вопросы к разработчикам )))
Трекер:  [ 05-Мар-2017 15:00 ]

  

Скачать .torrent

Размер .torrent файла 11 KB


Размер: 2.18 GB
Хэш (hash) релиза: 1a828cbfdf1c572f67282d53df6a2bd48630649f
Подписка на обновления:

Торренты, похожие на Пазманский дьявол Bleed for This скачать торрент

Форум Название Автор Размер S L Добавлен
Зарубежные фильмы до 2016 ·· Пазманский дьявол / Bleed for This (Бен Янгер / Ben Younger) [2016, США, Драма, биография, спорт, BDRip 720p] Dub (iTunes) + Sub Eng + Original Eng Galfimbul 50655081334.72 GB 0 0 1489100106

01:55

10-Мар-17

Зарубежные фильмы 2016-2019 (Новинки зарубежного кино) ·· Пазманский дьявол / Bleed for This (Бен Янгер / Ben Younger) [2016, США, драма, биография, спорт, BDRip] Dub (iTunes) Galfimbul 15687843841.46 GB 0 0 1488475785

20:29

2-Мар-17

Зарубежные фильмы 2016-2019 (Новинки зарубежного кино) ·· Пазманский дьявол / Bleed for This (Бен Янгер) [2016, драма, биография, спорт, BDRip 720p] Galfimbul 53361820114.97 GB 0 0 1488280431

14:13

28-Фев-17

Зарубежные фильмы 2016-2019 (Новинки зарубежного кино) ·· Пазманский дьявол / Bleed for This (Бен Янгер) [2016, драма, биография, спорт, BDRip 1080p] Galfimbul 102866159459.58 GB 0 0 1488280424

14:13

28-Фев-17

Зарубежные фильмы 2016-2019 (Новинки зарубежного кино) ·· Пазманский дьявол / Bleed for This (Бен Янгер) [2016, драма, биография, спорт, HDRip] Galfimbul 15647191041.46 GB 0 0 1488278615

13:43

28-Фев-17

Еще никто не оставлял запись к записи скачать торрент Пазманский дьявол Bleed for This . Будь первым!

!Обратная связь