Скачать через торрент Возмущение Indignation Фильм бесплатно в хорошем качестве torrent

Скачивайте на UnionPeer.org фильмы через торрент без регистрации. Новинки кино в хорошем качестве через торрент. На UnionPeer.org можно скачать через торрент фильмы 2014 и 2015 годов. Самые новые фильмы.

Скачать торрент Возмущение Indignation бесплатно через .torrent фильм мультфильм сериал

Статистика раздачи
Размер:  1.81 GB   |    Зарегистрирован:  7 лет 2 месяца   |    .torrent скачан:  42 раза   |   
Раздают:  1  
 

Скачать Возмущение / Indignation (Джеймс Шеймус / James Schamus) [2016, США, Китай, Драма, мелодрама, HDRip] MVO (FocusStudio) + Original + Subs (rus, eng) через torrent

 
 
Автор Сообщение

Galfimbul

avatar Galfimbul


Возмущение / Indignation«Based on the novel by Philip Roth»
Страна: США, Китай
Жанр: Драма, мелодрама
Год выпуска: 2016
Продолжительность: 01:51:14
Перевод: Профессиональный (многоголосый закадровый) - (FocusStudio)
Cубтитры: Русские (полные), Английские (полные, SDH)
Оригинальная аудиодорожка: Английский

Режиссер: Джеймс Шеймус / James Schamus

В ролях: Сара Гадон, Логан Лерман, Трэйси Леттс, Тихуана Рикс, Бен Розенфилд, Линда Эмонд, Дорис МакКарти, Мелани Блейк Рот, Джоэнн Барон, Ной Роббинс

Описание: 1951 год. Еврейский юноша Маркус Месснер едет из Ньюарка, штат Нью-Джерси в штат Огайо, где он собирается учиться в колледже. Там, на фоне продолжающийся войны в Корее, ему придется столкнуться с антисемитизмом и сексуальной подавленностью.

Сэмпл: http://multi-up.com/1143814

Качество видео: HDRip
Исходник: Indignation.2016.BDRip.1080p.FocusStudio

Формат видео: AVI
Видео: 720x384 (1.88:1), 23.976 fps, XviD build 65 ~1422 kbps avg, 0.21 bit/pixel
Аудио RUS: 48 kHz, AC3 Dolby Digital, 3/2 (L,C,R,l,r) + LFE ch, ~448 kbps - (FocusStudio)
Аудио ENG: 48 kHz, AC3 Dolby Digital, 3/2 (L,C,R,l,r) + LFE ch, ~448 kbps - отдельно
Формат субтитров: softsub (SRT)

Rip by Ториял для
Формат : AVI
Формат/Информация : Audio Video Interleave
Размер файла : 1,46 Гбайт
Продолжительность : 1 ч. 51 м.
Общий поток : 1880 Кбит/сек
Программа кодирования : VirtualDubMod 1.5.10.2 (build 2540/release)
Библиотека кодирования : VirtualDubMod build 2540/release

Видео
Идентификатор : 0
Формат : MPEG-4 Visual
Профиль формата : Advanced Simple@L5
Параметр BVOP формата : 1
Параметр QPel формата : Нет
Параметр GMC формата : Без точки перехода
Параметр матрицы формата : Выборочная
Идентификатор кодека : XVID
Идентификатор кодека/Подсказка : XviD
Продолжительность : 1 ч. 51 м.
Битрейт : 1423 Кбит/сек
Ширина : 720 пикселей
Высота : 384 пикселя
Соотношение сторон : 1,85:1
Частота кадров : 23,976 (24000/1001) кадра/сек
Цветовое пространство : YUV
Субдискретизация насыщенности : 4:2:0
Битовая глубина : 8 бит
Тип развёртки : Прогрессивная
Метод сжатия : С потерями
Бит/(Пиксели*Кадры) : 0.215
Размер потока : 1,11 Гбайт (76%)
Библиотека кодирования : XviD 65

Аудио
Идентификатор : 1
Формат : AC-3
Формат/Информация : Audio Coding 3
Расширение режима : CM (complete main)
Параметр Endianness формата : Big
Идентификатор кодека : 2000
Продолжительность : 1 ч. 51 м.
Вид битрейта : Постоянный
Битрейт : 448 Кбит/сек
Каналы : 6 каналов
Расположение каналов : Front: L C R, Side: L R, LFE
Частота : 48,0 КГц
Частота кадров : 31,250 кадров/сек (1536 spf)
Битовая глубина : 16 бит
Метод сжатия : С потерями
Размер потока : 356 Мбайт (24%)
Выравнивание : Разделение по промежуткам
Продолжительность промежутка : 42 мс. (1,00 видеокадр)
Время предзагрузки промежутка : 500 мс.


Внимание! AdBlock блокирует показ скриншотов, все вопросы к разработчикам )))

Трекер:  [ 05-Мар-2017 23:30 ]

  

Скачать .torrent

Размер .torrent файла 19 KB


Размер: 1.81 GB
Хэш (hash) релиза: dea43986d37fdf86b7c1e395c714054098ec7af9
Подписка на обновления:

Еще никто не оставлял запись к записи скачать торрент Возмущение Indignation . Будь первым!

!Обратная связь