Скачать через торрент Диснейленд  - Девять жизней Эльфего Бака Disneyland  - The Nine Lives of Elfego Baca Фильм бесплатно в хорошем качестве torrent

Скачивайте на UnionPeer.org фильмы через торрент без регистрации. Новинки кино в хорошем качестве через торрент. На UnionPeer.org можно скачать через торрент фильмы 2014 и 2015 годов. Самые новые фильмы.

Скачать торрент Диснейленд  - Девять жизней Эльфего Бака Disneyland  - The Nine Lives of Elfego Baca бесплатно через .torrent фильм мультфильм сериал

Статистика раздачи
Размер:  4.14 GB   |    Зарегистрирован:  6 лет 11 месяцев   |    .torrent скачан:  46 раз   |   
Раздают:  1  
   
 
Автор Сообщение

Galfimbul

avatar Galfimbul




Диснейленд  - Девять жизней Эльфего Бака / Disneyland  - The Nine Lives of Elfego Baca

Страна: США
Жанр: Вестерн
Год выпуска: 1958
Продолжительность: ~00:50:00
Перевод: Одноголосый закадровый
Cубтитры: русские
Оригинальная аудиодорожка: английский
Режиссер: Норман Фостер / Кристиан Найби
Доп. Информация:
Перевод: Свен Железнов
Закадровый текст: Артем Мосин - Щепачев
Релиз подготовил: Grandfather61
Фильм переведен и озвучен специально для: 7букв Вестерн / группа Джесси Джеймса
Отдельная благодарность Alassea за предоставленную русскую звуковую дорожку.
Фильм 1: Девять жизней Эльфего Бака / The Nine Lives of Elfego Baca
В ролях: Роберт Логгиа, Роберт Саймон, Лиза Монтелл, Нестор Пайва, Леонард Стронг, Джеймс Данн и другие
Описание: Профессиональный стрелок, защищающий закон на территории Нью-Мексико в последние дни Дикого Запада, арестовывает пьяного ковбоя, чем приводит в бешенство кучку его приятелей. В течение тридцати трёх часов Бака укрывается от вооружённой и жаждущей крови шайки линчевателей в ветхой лачуге, а затем выходит наружу без единой царапины, с твёрдым намерением стать адвокатом, чтобы и дальше отстаивать справедливость.

Качество видео: DVDRip
Формат видео: AVI

Видео: 704x528 (4:3), 25.000 fps, XviD build 73 ~1760 kbps avg, 0.189 bit/pixel
Аудио rus: 48 kHz, MPEG Layer 3, 2 ch, ~128.00 kbps avg
Аудио eng: 48 kHz, MPEG Layer 3, 2 ch, ~128.00 kbps avg
<div class="sp-wrap">
<div class="sp-head folded">MediaInfo</div>
<div class="sp-body">Общее
Полное имя : F:\Films\The.Nine.Lives.of.Elfego.Baca.1958\The.Nine.Lives.of.Elfego.Baca.1958.avi
Формат : AVI
Формат/Информация : Audio Video Interleave
Размер файла : 738 Мбайт
Продолжительность : 50 м.
Общий поток : 2030 Кбит/сек
Программа кодирования : VirtualDubMod 1.5.10.3 (build 2550/release)
Библиотека кодирования : VirtualDubMod build 2550/release

Видео
Идентификатор : 0
Формат : MPEG-4 Visual
Профиль формата : Advanced Simple@L5
Параметр BVOP формата : 2
Параметр QPel формата : Нет
Параметр GMC формата : Без точки перехода
Параметр матрицы формата : Default (MPEG)
Идентификатор кодека : XVID
Идентификатор кодека/Подсказка : XviD
Продолжительность : 50 м.
Битрейт : 1760 Кбит/сек
Ширина : 704 пикселя
Высота : 528 пикселей
Соотношение сторон : 4:3
Частота кадров : 25,000 кадров/сек
Цветовое пространство : YUV
Субдискретизация насыщенности : 4:2:0
Битовая глубина : 8 бит
Тип развёртки : Прогрессивная
Метод сжатия : С потерями
Бит/(Пиксели*Кадры) : 0.189
Размер потока : 640 Мбайт (87%)
Библиотека кодирования : XviD 73

Аудио #1
Идентификатор : 1
Формат : MPEG Audio
Версия формата : Version 1
Профиль формата : Layer 3
Режим : Joint stereo
Расширение режима : MS Stereo
Идентификатор кодека : 55
Идентификатор кодека/Подсказка : MP3
Продолжительность : 50 м.
Вид битрейта : Постоянный
Битрейт : 128 Кбит/сек
Каналы : 2 канала
Частота : 48,0 КГц
Метод сжатия : С потерями
Размер потока : 46,5 Мбайт (6%)
Выравнивание : Соединение по промежуткам
Продолжительность промежутка : 40 мс. (1,00 видеокадр)
Время предзагрузки промежутка : 504 мс.

Аудио #2
Идентификатор : 2
Формат : MPEG Audio
Версия формата : Version 1
Профиль формата : Layer 3
Режим : Joint stereo
Идентификатор кодека : 55
Идентификатор кодека/Подсказка : MP3
Продолжительность : 50 м.
Вид битрейта : Постоянный
Битрейт : 128 Кбит/сек
Каналы : 2 канала
Частота : 48,0 КГц
Метод сжатия : С потерями
Размер потока : 46,5 Мбайт (6%)
Выравнивание : Соединение по промежуткам
Продолжительность промежутка : 40 мс. (1,00 видеокадр)
Время предзагрузки промежутка : 504 мс.
</div>
</div>
Фильм 2: Девять жизней Эльфего Бака: На четыре жизни меньше. Пять осталось / The Nine Lives of Elfego Baca: Four Down and Five Lives to Go
В ролях: Роберт Логгиа, Роберт Саймон, Лиза Монтелл, Нестор Пайва, Леонард Стронг, Джеймс Данн и др.
Описание: Эльфего, работая шерифом Сокорро, применяет нетрадиционные методы. Результаты удивляют даже его самого. С теми, кто не поддается методам, приходится работать по-старинке - погоней и револьвером. Особенно сложным оказывается случай с бандитом, известным под прозвищем Бесстыдник.

Качество видео: DVDRip
Формат видео: AVI

Видео: 720x544 (1.32:1), 25 fps, XviD build 73 ~1491 kbps avg, 0.15 bit/pixel
Аудио # rus: 48 kHz, AC3 Dolby Digital, 2/0 (L,R) ch, ~192 kbps
Аудио # eng: 48 kHz, AC3 Dolby Digital, 2/0 (L,R) ch, ~192 kbps
<div class="sp-wrap">
<div class="sp-head folded">MediaInfo</div>
<div class="sp-body">General
Complete name : F:\РАЗБОР\Бака 2 серия\Four.Down.and.Five.Lives.to.Go.1958.Rus.Eng.avi
Format : AVI
Format/Info : Audio Video Interleave
File size : 709 MiB
Duration : 52mn 26s
Overall bit rate : 1 890 Kbps
Writing application : VirtualDubMod 1.5.10.3 (build 2550/release)
Writing library : VirtualDubMod build 2550/release

Video
ID : 0
Format : MPEG-4 Visual
Format profile : Advanced Simple@L5
Format settings, BVOP : 1
Format settings, QPel : No
Format settings, GMC : No warppoints
Format settings, Matrix : Default (MPEG)
Codec ID : XVID
Codec ID/Hint : XviD
Duration : 52mn 26s
Bit rate : 1 492 Kbps
Width : 720 pixels
Height : 544 pixels
Display aspect ratio : 4:3
Frame rate : 25.000 fps
Color space : YUV
Chroma subsampling : 4:2:0
Bit depth : 8 bits
Scan type : Progressive
Compression mode : Lossy
Bits/(Pixel*Frame) : 0.152
Stream size : 560 MiB (79%)
Writing library : XviD 73

Audio #1
ID : 1
Format : AC-3
Format/Info : Audio Coding 3
Mode extension : CM (complete main)
Format settings, Endianness : Big
Codec ID : 2000
Duration : 52mn 24s
Bit rate mode : Constant
Bit rate : 192 Kbps
Channel(s) : 2 channels
Channel positions : Front: L R
Sampling rate : 48.0 KHz
Frame rate : 31.250 fps (1536 spf)
Compression mode : Lossy
Stream size : 72.0 MiB (10%)
Alignment : Split accross interleaves
Interleave, duration : 40 ms (1.00 video frame)
Interleave, preload duratio : 500 ms

Audio #2
ID : 2
Format : AC-3
Format/Info : Audio Coding 3
Mode extension : CM (complete main)
Format settings, Endianness : Big
Codec ID : 2000
Duration : 52mn 24s
Bit rate mode : Constant
Bit rate : 192 Kbps
Channel(s) : 2 channels
Channel positions : Front: L R
Sampling rate : 48.0 KHz
Frame rate : 31.250 fps (1536 spf)
Compression mode : Lossy
Stream size : 72.0 MiB (10%)
Alignment : Split accross interleaves
Interleave, duration : 40 ms (1.00 video frame)
Interleave, preload duratio : 500 ms
</div>
</div>
Фильм 3: Девять жизней Эльфего Бака: Юрист?.. Или стрелок? / The Nine Lives of Elfego Baca: Lawman or Gunman?
В ролях: Уолт Дисней, Роберт Логгиа, Джеймс Данн, Рамон Наварро, Скип Хомейер, Валери Аллен,
Карл Бентон Рейд, Клегг Хойт, Джо Маросс и другие актёры.
Описание: Эльфего, оставив револьверы в ящике стола, ныряет в мир юриспруденции. Днём он работает клерком в конторе, ночью штудирует своды законов. Его наставник - мистер Ньюман - очень опытный адвокат. Когда Эльфего предлагает взяться за дело одного богатого ранчеро мексиканского происхождения, Ньюман отказывается, узнав какие серьезные люди положили глаз на собственность несчастного. Однако Эльфего настойчив и смел. Ньюман не может устоять перед решительностью ученика и это почти приводит его на край гибели. Только Эльфего способен спасти положение.

Качество видео: TVRip
Формат видео: AVI

Видео: 720x544 (1.32:1), 25 fps, DivX Codec 4.x ~1259 kbps avg, 0.13 bit/pixel
Аудио # rus: 48 kHz, AC3 Dolby Digital, 2/0 (L,R) ch, ~192 kbps
Аудио # eng: 48 kHz, AC3 Dolby Digital, 2/0 (L,R) ch, ~192 kbps
<div class="sp-wrap">
<div class="sp-head folded">MediaInfo</div>
<div class="sp-body">General
Complete name : F:\РАЗБОР\Disneyland - 5.09 - Elfego Baca- Lawman or Gunman\ Elfego.Baca-Lawman.or.Gunman.Rus.Eng.avi
Format : AVI
Format/Info : Audio Video Interleave
File size : 576 MiB
Duration : 48mn 30s
Overall bit rate : 1 659 Kbps
Writing application : VirtualDubMod 1.5.10.3 (build 2550/release)
Writing library : VirtualDubMod build 2550/release

Video
ID : 0
Format : MPEG-4 Visual
Format settings, BVOP : Yes
Format settings, QPel : No
Format settings, GMC : No warppoints
Format settings, Matrix : Default (H.263)
Codec ID : DIVX
Codec ID/Info : Project Mayo
Codec ID/Hint : DivX 4
Duration : 48mn 30s
Bit rate : 1 261 Kbps
Width : 720 pixels
Height : 544 pixels
Display aspect ratio : 4:3
Frame rate : 25.000 fps
Color space : YUV
Chroma subsampling : 4:2:0
Bit depth : 8 bits
Scan type : Progressive
Compression mode : Lossy
Bits/(Pixel*Frame) : 0.129
Stream size : 437 MiB (76%)

Audio #1
ID : 1
Format : AC-3
Format/Info : Audio Coding 3
Mode extension : CM (complete main)
Format settings, Endianness : Big
Codec ID : 2000
Duration : 48mn 30s
Bit rate mode : Constant
Bit rate : 192 Kbps
Channel(s) : 2 channels
Channel positions : Front: L R
Sampling rate : 48.0 KHz
Frame rate : 31.250 fps (1536 spf)
Compression mode : Lossy
Stream size : 66.6 MiB (12%)
Alignment : Split accross interleaves
Interleave, duration : 40 ms (1.00 video frame)
Interleave, preload duration : 500 ms

Audio #2
ID : 2
Format : AC-3
Format/Info : Audio Coding 3
Mode extension : CM (complete main)
Format settings, Endianness : Big
Codec ID : 2000
Duration : 48mn 30s
Bit rate mode : Constant
Bit rate : 192 Kbps
Channel(s) : 2 channels
Channel positions : Front: L R
Sampling rate : 48.0 KHz
Frame rate : 31.250 fps (1536 spf)
Compression mode : Lossy
Stream size : 66.6 MiB (12%)
Alignment : Split accross interleaves
Interleave, duration : 40 ms (1.00 video frame)
Interleave, preload duration : 500 ms
</div>
</div>
Фильм 4: Девять жизней Эльфего Бака: Закон и Порядок / The Nine Lives of Elfego Baca: Law and Order, Incorporated

В ролях: Уолт Дисней, Роберт Логгиа, Джеймс Данн, Рамон Наварро, Скип Хомейер, Валери Аллен, Карл Бентон Рейд, Клегг Хойт, Джо Маросс и другие
Описание: Эльфего и Ньюман снова приходят на помощь Эстебану Миранда.
Они встают на пути мошенников, рискуя лишиться свободы и жизни.


Качество видео: TVRip
Формат видео: AVI

Видео: 640x480 (1.33:1), 23.976 fps, XviD build 67 ~1774 kbps avg, 0.24 bit/pixel
Аудио # rus: 48 kHz, AC3 Dolby Digital, 2/0 (L,R) ch, ~192 kbps
Аудио # eng: 48 kHz, AC3 Dolby Digital, 2/0 (L,R) ch, ~192 kbps
<div class="sp-wrap">
<div class="sp-head folded">MediaInfo</div>
<div class="sp-body">General
Complete name : F:\РАЗБОР\ Efego Baca Law And Order, Incorporated\Law.and.Order.Incorporated.1958.Rus.Eng.avi
Format : AVI
Format/Info : Audio Video Interleave
File size : 753 MiB
Duration : 48mn 27s
Overall bit rate : 2 173 Kbps
Writing application : VirtualDubMod 1.5.10.3 (build 2550/release)
Writing library : VirtualDubMod build 2550/release

Video
ID : 0
Format : MPEG-4 Visual
Format profile : Advanced Simple@L5
Format settings, BVOP : 1
Format settings, QPel : No
Format settings, GMC : No warppoints
Format settings, Matrix : Default (MPEG)
Codec ID : XVID
Codec ID/Hint : XviD
Duration : 48mn 27s
Bit rate : 1 775 Kbps
Width : 640 pixels
Height : 480 pixels
Display aspect ratio : 4:3
Frame rate : 23.976 (24000/1001) fps
Color space : YUV
Chroma subsampling : 4:2:0
Bit depth : 8 bits
Scan type : Progressive
Compression mode : Lossy
Bits/(Pixel*Frame) : 0.241
Stream size : 615 MiB (82%)
Writing library : XviD 67

Audio #1
ID : 1
Format : AC-3
Format/Info : Audio Coding 3
Mode extension : CM (complete main)
Format settings, Endianness : Big
Codec ID : 2000
Duration : 48mn 27s
Bit rate mode : Constant
Bit rate : 192 Kbps
Channel(s) : 2 channels
Channel positions : Front: L R
Sampling rate : 48.0 KHz
Frame rate : 31.250 fps (1536 spf)
Compression mode : Lossy
Stream size : 66.6 MiB (9%)
Alignment : Split accross interleaves
Interleave, duration : 42 ms (1.00 video frame)
Interleave, preload duration : 500 ms

Audio #2
ID : 2
Format : AC-3
Format/Info : Audio Coding 3
Mode extension : CM (complete main)
Format settings, Endianness : Big
Codec ID : 2000
Duration : 48mn 27s
Bit rate mode : Constant
Bit rate : 192 Kbps
Channel(s) : 2 channels
Channel positions : Front: L R
Sampling rate : 48.0 KHz
Frame rate : 31.250 fps (1536 spf)
Compression mode : Lossy
Stream size : 66.6 MiB (9%)
Alignment : Split accross interleaves
Interleave, duration : 42 ms (1.00 video frame)
Interleave, preload duration : 500 ms
</div>
</div>
Фильм 5: Девять жизней Эльфего Бака: Адвокат / The Nine Lives of Elfego Baca: Attorney At Law

В ролях: Уолт Дисней, Роберт Логгиа, Джеймс Данн, Линн Бари, Джеймс Друри, Кеннет Тоби, Грант Холке, Роберт Стивенсон и другие.
Описание: Эльфего Бака и Генри Джей Ньюман оказываются в эпицентре расследования одного дерзкого ограбления. Они идут против фактов, которые не вызывают сомнений у других, включая шерифа и его помощников. Действуя где умом, где связями, а где и кулаками, адвокаты распутывают сложный клубок лжи и подлости.

Качество видео: DVDRip
Формат видео: AVI

Видео: 640x480 (1.33:1), 23.976 fps, XviD build 73 ~1491 kbps avg, 0.20 bit/pixel
Аудио # rus: 48 kHz, AC3 Dolby Digital, 2/0 (L,R) ch, ~192 kbps
Аудио # eng: 48 kHz, AC3 Dolby Digital, 2/0 (L,R) ch, ~192 kbps
<div class="sp-wrap">
<div class="sp-head folded">MediaInfo</div>
<div class="sp-body">Общее
Полное имя : F:\Films\Disneyland - The Nine Lives of Elfego Baca.1958-1959\[05]Attorney.At.Law.1959.Rus.Eng.avi
Формат : AVI
Формат/Информация : Audio Video Interleave
Размер файла : 708 Мбайт
Продолжительность : 52 м. 23 с.
Общий поток : 1890 Кбит/сек
Программа кодирования : VirtualDubMod 1.5.10.3 (build 2550/release)
Библиотека кодирования : VirtualDubMod build 2550/release

Видео
Идентификатор : 0
Формат : MPEG-4 Visual
Профиль формата : Advanced Simple@L5
Параметр BVOP формата : 1
Параметр QPel формата : Нет
Параметр GMC формата : Без точки перехода
Параметр матрицы формата : Default (MPEG)
Идентификатор кодека : XVID
Идентификатор кодека/Подсказка : XviD
Продолжительность : 52 м. 23 с.
Битрейт : 1492 Кбит/сек
Ширина : 640 пикселей
Высота : 480 пикселей
Соотношение сторон : 4:3
Частота кадров : 23,976 (24000/1001) кадра/сек
Цветовое пространство : YUV
Субдискретизация насыщенности : 4:2:0
Битовая глубина : 8 бит
Тип развёртки : Прогрессивная
Метод сжатия : С потерями
Бит/(Пиксели*Кадры) : 0.203
Размер потока : 559 Мбайт (79%)
Библиотека кодирования : XviD 73

Аудио #1
Идентификатор : 1
Формат : AC-3
Формат/Информация : Audio Coding 3
Параметр Endianness формата : Big
Идентификатор кодека : 2000
Продолжительность : 52 м. 23 с.
Вид битрейта : Постоянный
Битрейт : 192 Кбит/сек
Каналы : 2 канала
Расположение каналов : Front: L R
Частота : 48,0 КГц
Частота кадров : 31,250 кадров/сек (1536 spf)
Битовая глубина : 16 бит
Метод сжатия : С потерями
Размер потока : 71,9 Мбайт (10%)
Выравнивание : Разделение по промежуткам
Продолжительность промежутка : 42 мс. (1,00 видеокадр)
Время предзагрузки промежутка : 500 мс.
ServiceKind/String : Complete Main

Аудио #2
Идентификатор : 2
Формат : AC-3
Формат/Информация : Audio Coding 3
Параметр Endianness формата : Big
Идентификатор кодека : 2000
Продолжительность : 52 м. 23 с.
Вид битрейта : Постоянный
Битрейт : 192 Кбит/сек
Каналы : 2 канала
Расположение каналов : Front: L R
Частота : 48,0 КГц
Частота кадров : 31,250 кадров/сек (1536 spf)
Битовая глубина : 16 бит
Метод сжатия : С потерями
Размер потока : 71,9 Мбайт (10%)
Выравнивание : Разделение по промежуткам
Продолжительность промежутка : 42 мс. (1,00 видеокадр)
Время предзагрузки промежутка : 500 мс.
ServiceKind/String : Complete Main
</div>
</div>
Фильм 6: Девять жизней Эльфего Бака: Убийство Гризвольда / The Nine Lives of Elfego Baca: The Griswold Murder

В ролях: Уолт Дисней, Роберт Логгиа, Джеймс Данн, Джей С. Флиппен, Патрик Ноулз, Одри Далтон, Филлип Терри, Карл Бентон Рейд, Грант Виттерс, Р.Г. Армстронг, Херберт Андерсон и другие.
Описание: Эльфего берется за расследование убийства. Извилистый путь к истине прокладывают сведения из аризонской тюрьмы, слова тайного информатора, признание известного скотокрада. По ходу следствия Эльфего успешно справляется с толпой линчевателей, превосходит своего наставника Ньюмана в суде и спасает невиновного от суровой кары.

Качество видео: HDRip
Формат видео: AVI

Видео: 640x480 (1.33:1), 23.976 fps, XviD build 67 ~1769 kbps avg, 0.24 bit/pixel
Аудио # rus: 48 kHz, AC3 Dolby Digital, 2/0 (L,R) ch, ~192 kbps
Аудио # eng: 48 kHz, AC3 Dolby Digital, 2/0 (L,R) ch, ~192 kbps
<div class="sp-wrap">
<div class="sp-head folded">MediaInfo</div>
<div class="sp-body">Общее
Полное имя : F:\Films\Disneyland - The Nine Lives of Elfego Baca.1958-1959\[06]The.Griswold.Murder.1959.Rus.Eng.avi
Формат : AVI
Формат/Информация : Audio Video Interleave
Размер файла : 753 Мбайт
Продолжительность : 48 м. 34 с.
Общий поток : 2168 Кбит/сек
Программа кодирования : VirtualDubMod 1.5.10.3 (build 2550/release)
Библиотека кодирования : VirtualDubMod build 2550/release

Видео
Идентификатор : 0
Формат : MPEG-4 Visual
Профиль формата : Advanced Simple@L5
Параметр BVOP формата : 1
Параметр QPel формата : Нет
Параметр GMC формата : Без точки перехода
Параметр матрицы формата : Default (MPEG)
Идентификатор кодека : XVID
Идентификатор кодека/Подсказка : XviD
Продолжительность : 48 м. 34 с.
Битрейт : 1770 Кбит/сек
Ширина : 640 пикселей
Высота : 480 пикселей
Соотношение сторон : 4:3
Частота кадров : 23,976 (24000/1001) кадра/сек
Цветовое пространство : YUV
Субдискретизация насыщенности : 4:2:0
Битовая глубина : 8 бит
Тип развёртки : Прогрессивная
Метод сжатия : С потерями
Бит/(Пиксели*Кадры) : 0.240
Размер потока : 615 Мбайт (82%)
Библиотека кодирования : XviD 67

Аудио #1
Идентификатор : 1
Формат : AC-3
Формат/Информация : Audio Coding 3
Параметр Endianness формата : Big
Идентификатор кодека : 2000
Продолжительность : 48 м. 34 с.
Вид битрейта : Постоянный
Битрейт : 192 Кбит/сек
Каналы : 2 канала
Расположение каналов : Front: L R
Частота : 48,0 КГц
Частота кадров : 31,250 кадров/сек (1536 spf)
Битовая глубина : 16 бит
Метод сжатия : С потерями
Размер потока : 66,7 Мбайт (9%)
Выравнивание : Разделение по промежуткам
Продолжительность промежутка : 42 мс. (1,00 видеокадр)
Время предзагрузки промежутка : 500 мс.
ServiceKind/String : Complete Main

Аудио #2
Идентификатор : 2
Формат : AC-3
Формат/Информация : Audio Coding 3
Параметр Endianness формата : Big
Идентификатор кодека : 2000
Продолжительность : 48 м. 34 с.
Вид битрейта : Постоянный
Битрейт : 192 Кбит/сек
Каналы : 2 канала
Расположение каналов : Front: L R
Частота : 48,0 КГц
Частота кадров : 31,250 кадров/сек (1536 spf)
Битовая глубина : 16 бит
Метод сжатия : С потерями
Размер потока : 66,7 Мбайт (9%)
Выравнивание : Разделение по промежуткам
Продолжительность промежутка : 42 мс. (1,00 видеокадр)
Время предзагрузки промежутка : 500 мс.
ServiceKind/String : Complete Main
</div>
</div>
Внимание! Раздача ведётся путём добавления новых серий; при каждом добавлении создётся новый торрент. Чтобы начать докачку новой серии, пользователям необходимо сделать следующее:
Остановить скачивание.
Удалить старый торрент у себя из клиента (старые серии удалять не надо).
Скачать новый торрент и запустить его у себя в клиенте вместо старого, при этом указать клиенту путь в старую папку куда и должно происходить скачивание новых серий.
Ваш клиент при этом должен произвести хеширование (проверку) старой папки (если не производит сам - помогите ему сделать это), и будет докачивать только те серии которых у вас ещё нет. Старые серии при этом не удаляются, а продолжают раздаваться!
Eсли вы уже удалили старые серии, то предотвратить повторную закачку старых серий можно, отжав галочку в соответсвующих местах при запуске нового торрента. По возможности, желательно не удалять старые серии как можно дольше чтобы релизёр не столько продолжал раздавать старые серии, а смог сконцентрироваться на новых.
Раздача обновлена. Объединены все переведенные эпизоды в одной теме. Добавлены 5 и 6-й эпизоды. Приятного просмотра!

Внимание! AdBlock блокирует показ скриншотов, все вопросы к разработчикам )))
Трекер:  [ 06-Мар-2017 11:00 ]

  

Скачать .torrent

Размер .torrent файла 12 KB


Размер: 4.14 GB
Хэш (hash) релиза: 9661624e0035b6df8a972b6a3e8fb7e8f93ba3ac
Подписка на обновления:

Еще никто не оставлял запись к записи скачать торрент Диснейленд  - Девять жизней Эльфего Бака Disneyland  - The Nine Lives of Elfego Baca . Будь первым!

!Обратная связь