Скачать через торрент Идеальные незнакомцы Perfetti sconosciuti Фильм бесплатно в хорошем качестве torrent

Скачивайте на UnionPeer.org фильмы через торрент без регистрации. Новинки кино в хорошем качестве через торрент. На UnionPeer.org можно скачать через торрент фильмы 2014 и 2015 годов. Самые новые фильмы.

Скачать торрент Идеальные незнакомцы Perfetti sconosciuti бесплатно через .torrent фильм мультфильм сериал

Статистика раздачи
Размер:  747 MB   |    Зарегистрирован:  7 лет 1 месяц   |    .torrent скачан:  83 раза   |   
Раздают:  1  
 

Скачать Идеальные незнакомцы / Perfetti sconosciuti (Паоло Дженовезе / Paolo Genovese) [2016, Италия, драма, HDRip] MVO (iTunes) через torrent

 
 
Автор Сообщение

Galfimbul

avatar Galfimbul


Идеальные незнакомцы / Perfetti sconosciuti

Страна: Италия
Жанр: драма
Год выпуска: 2016
Продолжительность: 01:36:03

Перевод: Профессиональный (многоголосый закадровый) iTunes
Cубтитры: нет
Режиссер: Паоло Дженовезе / Paolo Genovese

В ролях: Джузеппе Баттистон, Анна Фольетта, Марко Джаллини, Эдоардо Лео, Валерио Мастандреа, Альба Рорвахер, Касия Смутняк

Описание: Семеро старых друзей собираются вместе на ужин. Когда они решают начать игру, заключающуюся в том, что им придется читать все поступающие смс вслух, а на звонки отвечать по громкой связи, они и представить себе не могут, к чему приведет такая откровенность...

Сэмпл: http://multi-up.com/1143957

Качество видео: HDRip
Формат видео: AVI

Видео: 688x288 (2.39:1), 23.976 fps, XviD build 73 ~953 kbps avg, 0.20 bit/pixel
Аудио: 48 kHz, MPEG Layer 3, 2 ch, ~128.00 kbps avg - iTunes
Формат : AVI
Формат/Информация : Audio Video Interleave
Размер файла : 747 Мбайт
Продолжительность : 1 ч. 36 м.
Общий поток : 1087 Кбит/сек

Видео
Идентификатор : 0
Формат : MPEG-4 Visual
Профиль формата : Advanced Simple@L5
Параметр BVOP формата : 1
Параметр QPel формата : Нет
Параметр GMC формата : Без точки перехода
Параметр матрицы формата : Выборочная
Идентификатор кодека : XVID
Идентификатор кодека/Подсказка : XviD
Продолжительность : 1 ч. 36 м.
Битрейт : 953 Кбит/сек
Ширина : 688 пикселей
Высота : 288 пикселей
Соотношение сторон : 2,40:1
Частота кадров : 23,976 (24000/1001) кадра/сек
Цветовое пространство : YUV
Субдискретизация насыщенности : 4:2:0
Битовая глубина : 8 бит
Тип развёртки : Прогрессивная
Метод сжатия : С потерями
Бит/(Пиксели*Кадры) : 0.201
Размер потока : 655 Мбайт (88%)
Библиотека кодирования : XviD 73

Аудио
Идентификатор : 1
Формат : MPEG Audio
Версия формата : Version 1
Профиль формата : Layer 3
Режим : Joint stereo
Расширение режима : MS Stereo
Идентификатор кодека : 55
Идентификатор кодека/Подсказка : MP3
Продолжительность : 1 ч. 36 м.
Вид битрейта : Постоянный
Битрейт : 128 Кбит/сек
Каналы : 2 канала
Частота : 48,0 КГц
Метод сжатия : С потерями
Размер потока : 87,9 Мбайт (12%)
Выравнивание : Соединение по промежуткам
Продолжительность промежутка : 167 мс. (4,00 видеокадра)
Время предзагрузки промежутка : 216 мс.
Библиотека кодирования : LAME3.99r
Настройки программы : -m j -V 4 -q 2 -lowpass 17 -b 128


Внимание! AdBlock блокирует показ скриншотов, все вопросы к разработчикам )))

Трекер:  [ 07-Мар-2017 07:00 ]

  

Скачать .torrent

Размер .torrent файла 15 KB


Размер: 747 MB
Хэш (hash) релиза: dd9a06b6b45a23b0aed9dd7b59cd98e855b9883c
Подписка на обновления:

Торренты, похожие на Идеальные незнакомцы Perfetti sconosciuti скачать торрент

Форум Название Автор Размер S L Добавлен
Зарубежные фильмы 2016-2019 (Новинки зарубежного кино) ·%· Идеальные незнакомцы / Perfetti sconosciuti (2016) BDRip-HEVC 1080p от HEVC-CLUB | iTunes, L1 Galfimbul 77055912247.18 GB 0 0 1585646425

12:20

31-Мар-20

Зарубежные фильмы 2016-2019 (Новинки зарубежного кино) ·· Идеальные незнакомцы / Perfetti sconosciuti (Паоло Дженовезе / Paolo Genovese) [2016, Италия, драма, комедия, BDRip-AVC] MVO + Original + Sub (rus, ita, eng) Galfimbul 22577863852.1 GB 0 0 1489488938

13:55

14-Мар-17

Зарубежные фильмы 2016-2019 (Новинки зарубежного кино) ·· Идеальные незнакомцы / Perfetti sconosciuti (Паоло Дженовезе / Paolo Genovese) [2016, Италия, драма, комедия, BDRip-AVC] MVO + Original + Sub (rus, ita, eng) Galfimbul 15819294101.47 GB 0 0 1489488932

13:55

14-Мар-17

Зарубежные фильмы 2016-2019 (Новинки зарубежного кино) ·· Идеальные незнакомцы / Perfetti sconosciuti (Паоло Дженовезе / Paolo Genovese) [2016, Италия, Драма, комедия, BDRip] MVO + Original (Ita) + Subs (Rus, Eng, Ita) Galfimbul 18868554831.76 GB 0 0 1489488887

13:54

14-Мар-17

Зарубежные фильмы 2016-2019 (Новинки зарубежного кино) ·· Идеальные незнакомцы / Perfetti sconosciuti (Паоло Дженовезе / Paolo Genovese) [2016, Италия, драма, BDRip] MVO + Sub Rus Eng Ita + Original Ita Galfimbul 23383411792.18 GB 0 0 1489469771

08:36

14-Мар-17

Зарубежные фильмы 2016-2019 (Новинки зарубежного кино) ·· Идеальные незнакомцы / Perfetti sconosciuti (Паоло Дженовезе / Paolo Genovese) [2016, Италия, драма, Blu-ray 1080p] iTunes Galfimbul 2233588828220.8 GB 0 0 1489330123

17:48

12-Мар-17

Зарубежные фильмы 2016-2019 (Новинки зарубежного кино) ·· Идеальные незнакомцы / Perfetti sconosciuti (Паоло Дженовезе / Paolo Genovese) [2016, Италия, драма, HDRip] MVO (iTunes) Galfimbul 15680758341.46 GB 0 0 1488862510

07:55

7-Мар-17

Зарубежные фильмы 2016-2019 (Новинки зарубежного кино) ·· Идеальные незнакомцы / Perfetti sconosciuti (Паоло Дженовезе) [2016, драма, комедия, HDRip] Galfimbul 15648644821.46 GB 0 0 1467008097

09:14

27-Июн-16

Еще никто не оставлял запись к записи скачать торрент Идеальные незнакомцы Perfetti sconosciuti . Будь первым!

!Обратная связь