Скачать через торрент Пассажиры Passengers Фильм бесплатно в хорошем качестве torrent

Скачивайте на UnionPeer.org фильмы через торрент без регистрации. Новинки кино в хорошем качестве через торрент. На UnionPeer.org можно скачать через торрент фильмы 2014 и 2015 годов. Самые новые фильмы.

Скачать торрент Пассажиры Passengers бесплатно через .torrent фильм мультфильм сериал

Статистика раздачи
Размер:  13.2 GB   |    Зарегистрирован:  6 лет 11 месяцев   |    .torrent скачан:  213 раз   |   
Раздают:  1  
 

Скачать Пассажиры / Passengers (Мортен Тильдум / Morten Tyldum) [2016, США, фантастика, драма, мелодрама, приключения, BDRip 1080p] Dub (iTunes) + Sub Rus, Ukr, Eng + Original Eng через torrent

 
 
Автор Сообщение

Galfimbul

avatar Galfimbul


Пассажиры / Passengers

Страна: США
Студия: Columbia Pictures, LStar Capital, Village Roadshow Pictures
Жанр: фантастика, драма, мелодрама, приключения
Год выпуска: 2016
Продолжительность: 01:56:10

Перевод: Профессиональный (дублированный) iTunes
Cубтитры: Rus, Ukr, Eng
Оригинальная аудиодорожка: английский

Режиссер: Мортен Тильдум / Morten Tyldum

В ролях: Дженнифер Лоуренс, Крис Пратт, Майкл Шин, Лоренс Фишбёрн, Энди Гарсиа, Винс Фостер, Кара Мишель Уайлдер, Конор Брофи, Джули Серда, Аврора Перрино, Наталья Грачёва, Сергей Смирнов, Василий Дахненко, Сергей Чихачев, Нина Александрова

Описание: Космический корабль с 5,000 пассажиров на борту, погруженных на время полета в искусственный сон, держит курс на планету, которая станет для них новым домом. Всё идет по плану, но из-за сбоя системы двое пассажиров неожиданно просыпаются и понимают, что до конечного пункта путешествия - 90 лет пути, и им суждено остаток жизни провести вдвоем в роскошных интерьерах корабля, оснащенного по последнему слову техники. Постепенно Джима и Аврору начинает непреодолимо тянуть друг к другу, но корабль попадает в беду, и теперь в их руках - жизнь и судьба всех обитателей корабля.



Тип релиза: BDRip 1080p
Контейнер: MKV

Видео: MPEG-4 AVC, 14.1 Mбит/с, 1920x804, 23,976 fps
Аудио: Rus, AC3, 384 kb/s (6 ch), 48 kHz
Аудио 2: Eng, DTS, 1510 kb/s (6 ch), 48 kHz
Формат субтитров: softsub (SRT)
x264 [info]: frame I:1600 Avg QP:12.16 size:242123
x264 [info]: frame P:39005 Avg QP:14.01 size:129961
x264 [info]: frame B:126531 Avg QP:15.08 size: 55827

Format : Matroska
Format version : Version 4 / Version 2
File size : 13.2 GiB
Duration : 1h 56mn
Overall bit rate : 16.3 Mbps
Movie name : Пассажиры. (Tonik)
Encoded date : UTC 2017-03-04 09:52:27
Writing application : mkvmerge v7.1.0 ('Good Love') 64bit built on Jul 27 2014 13:06:55
Writing library : libebml v1.3.0 + libmatroska v1.4.1
Attachements : Cover.jpeg
_STATISTICS_WRITING_APP : mkvmerge v7.1.0 ('Good Love') 64bit built on Jul 27 2014 13:06:55
_STATISTICS_WRITING_DATE_UTC : 2017-03-04 09:52:27
_STATISTICS_TAGS : BPS DURATION NUMBER_OF_FRAMES NUMBER_OF_BYTES
DURATION : 01:56:10.368000000
NUMBER_OF_FRAMES : 217824
NUMBER_OF_BYTES : 334577664

Video
ID : 1
Format : AVC
Format/Info : Advanced Video Codec
Format profile : [email protected]
Format settings, CABAC : Yes
Format settings, ReFrames : 5 frames
Codec ID : V_MPEG4/ISO/AVC
Duration : 1h 56mn
Bit rate : 14.1 Mbps
Width : 1 920 pixels
Height : 804 pixels
Display aspect ratio : 2.40:1
Frame rate mode : Constant
Frame rate : 23.976 fps
Color space : YUV
Chroma subsampling : 4:2:0
Bit depth : 8 bits
Scan type : Progressive
Bits/(Pixel*Frame) : 0.380
Stream size : 11.4 GiB (86%)
Writing library : x264 core 148 r2705+54 9f484c1 t_mod_Custom [8-bit@all X86_64]
Encoding settings : cabac=1 / ref=5 / deblock=1:-3:-3 / analyse=0x3:0x133 / me=umh / subme=11 / psy=1 / fade_compensate=0.00 / psy_rd=1.02:0.00 / mixed_ref=1 / me_range=32 / chroma_me=1 / trellis=2 / 8x8dct=1 / cqm=0 / deadzone=21,11 / fast_pskip=0 / chroma_qp_offset=-2 / threads=12 / lookahead_threads=2 / sliced_threads=0 / nr=0 / decimate=0 / interlaced=0 / bluray_compat=0 / constrained_intra=0 / fgo=0 / bframes=8 / b_pyramid=2 / b_adapt=2 / b_bias=0 / direct=3 / weightb=1 / open_gop=0 / weightp=2 / keyint=250 / keyint_min=23 / scenecut=40 / intra_refresh=0 / rc_lookahead=60 / rc=crf / mbtree=0 / crf=15.3000 / qcomp=0.65 / qpmin=0:0:0 / qpmax=69:69:69 / qpstep=4 / vbv_maxrate=62500 / vbv_bufsize=78125 / crf_max=0.0 / nal_hrd=none / filler=0 / ip_ratio=1.30 / pb_ratio=1.20 / aq=3:0.80 / aq-sensitivity=10.00 / aq-factor=1.00:1.00:1.00 / aq2=0 / aq3=0 / zones=862,1292,crf=12/70559,70616,crf=12/70776,70829,crf=12/80366,80627,crf=13/84251,84405,crf=14/85289,85436,crf=14/85530,85894,crf=14.5/85895,86369,crf=12/86370,86420,crf=14/87026,87088,crf=14/92970,93291,crf=14/96808,96825,crf=14/102587,102849,crf=14/113448,113533,crf=12/113613,113666,crf=12/114220,114336,crf=14/120676,120826,crf=14/122739,123455,crf=14/124234,127263,crf=14/128107,128153,crf=12/128311,128388,crf=13/128427,128524,crf=12/128697,130002,crf=14.5/132235,142598,crf=14.7/157400,157462,crf=13/157470,167135,crf=20
Language : English
Default : Yes
Forced : No
Matrix coefficients : BT.709
_STATISTICS_WRITING_APP : mkvmerge v7.1.0 ('Good Love') 64bit built on Jul 27 2014 13:06:55
_STATISTICS_WRITING_DATE_UTC : 2017-03-04 09:52:27
_STATISTICS_TAGS : BPS DURATION NUMBER_OF_FRAMES NUMBER_OF_BYTES
DURATION : 01:56:10.964000000
NUMBER_OF_FRAMES : 167136
NUMBER_OF_BYTES : 12520337936

Audio #1
ID : 2
Format : AC-3
Format/Info : Audio Coding 3
Mode extension : CM (complete main)
Format settings, Endianness : Big
Codec ID : A_AC3
Duration : 1h 56mn
Bit rate mode : Constant
Bit rate : 384 Kbps
Channel(s) : 6 channels
Channel positions : Front: L C R, Side: L R, LFE
Sampling rate : 48.0 KHz
Bit depth : 16 bits
Compression mode : Lossy
Stream size : 319 MiB (2%)
Title : iTunes
Language : Russian
Default : Yes
Forced : No

Audio #2
ID : 3
Format : DTS
Format/Info : Digital Theater Systems
Mode : 16
Format settings, Endianness : Big
Codec ID : A_DTS
Duration : 1h 56mn
Bit rate mode : Constant
Bit rate : 1 509 Kbps
Channel(s) : 6 channels
Channel positions : Front: L C R, Side: L R, LFE
Sampling rate : 48.0 KHz
Bit depth : 24 bits
Compression mode : Lossy
Stream size : 1.22 GiB (9%)
Language : English
Default : No
Forced : No

Text #1
ID : 4
Format : UTF-8
Codec ID : S_TEXT/UTF8
Codec ID/Info : UTF-8 Plain Text
Title : Forced
Language : Russian
Default : Yes
Forced : Yes

Text #2
ID : 5
Format : UTF-8
Codec ID : S_TEXT/UTF8
Codec ID/Info : UTF-8 Plain Text
Language : Russian
Default : No
Forced : No

Text #3
ID : 6
Format : UTF-8
Codec ID : S_TEXT/UTF8
Codec ID/Info : UTF-8 Plain Text
Language : Ukrainian
Default : No
Forced : No

Text #4
ID : 7
Format : UTF-8
Codec ID : S_TEXT/UTF8
Codec ID/Info : UTF-8 Plain Text
Language : English
Default : No
Forced : No

Text #5
ID : 8
Format : UTF-8
Codec ID : S_TEXT/UTF8
Codec ID/Info : UTF-8 Plain Text
Title : SDH
Language : English
Default : No
Forced : No

Menu
00:00:00.000 : en:00:00:00.000
00:07:04.674 : en:00:07:04.674
00:14:38.211 : en:00:14:38.211
00:20:33.649 : en:00:20:33.649
00:25:06.338 : en:00:25:06.338
00:30:30.662 : en:00:30:30.662
00:40:47.987 : en:00:40:47.987
00:50:23.020 : en:00:50:23.020
00:57:28.945 : en:00:57:28.945
01:02:54.813 : en:01:02:54.813
01:10:47.160 : en:01:10:47.160
01:17:48.664 : en:01:17:48.664
01:25:17.029 : en:01:25:17.029
01:31:45.041 : en:01:31:45.041
01:37:53.242 : en:01:37:53.242
01:42:18.549 : en:01:42:18.549


Внимание! AdBlock блокирует показ скриншотов, все вопросы к разработчикам )))
Трекер:  [ 10-Мар-2017 01:00 ]

  

Скачать .torrent

Размер .torrent файла 33 KB


Размер: 13.2 GB
Хэш (hash) релиза: 652d711319eb81fba9f2f716621961a14cc4651f
Подписка на обновления:

Торренты, похожие на Пассажиры Passengers скачать торрент

Форум Название Автор Размер S L Добавлен
Зарубежные фильмы 2016-2019 (Новинки зарубежного кино) ·%· Пассажиры / Passengers (2016) BDRip-HEVC 1080p от HEVC-CLUB | D Galfimbul 52769281524.91 GB 0 0 1573408232

20:50

10-Ноя-19

Зарубежные фильмы 2016-2019 (Новинки зарубежного кино) ·%· Пассажиры / Passengers (2016) BDRip 1080p от New-Team & qqss44 | Лицензия Galfimbul 74589145966.95 GB 0 0 1571422820

21:20

18-Окт-19

Зарубежные фильмы 2016-2019 (Новинки зарубежного кино) ·%· Пассажиры / Passengers (2016) BDRip-HEVC 1080p от HEVC-CLUB | Лицензия Galfimbul 50118940364.67 GB 0 0 1571418034

20:00

18-Окт-19

Зарубежные фильмы 2016-2019 (Новинки зарубежного кино) ·%· Пассажиры / Passengers (2016) BDRip 720p от MediaClub | D, A Galfimbul 63990868495.96 GB 0 0 1555594812

16:40

18-Апр-19

Зарубежные фильмы 2016-2019 (Новинки зарубежного кино) ·%· Пассажиры / Passengers (2016) BDRip-AVC | D | Локализованная версия | Лицензия Galfimbul 22133809162.06 GB 0 0 1541404211

10:50

5-Ноя-18

Зарубежные фильмы 2016-2019 (Новинки зарубежного кино) ·%· Пассажиры / Passengers (2016) BDRip от ExKinoRay | Локализованная версия | Лицензия Galfimbul 15678171661.46 GB 0 0 1538777460

01:11

6-Окт-18

Зарубежные фильмы 2016-2019 (Новинки зарубежного кино) ·%· Пассажиры / Passengers (2016) BDRip от ExKinoRay | Локализованная версия | Лицензия Galfimbul 23427807222.18 GB 0 0 1538777412

01:10

6-Окт-18

Зарубежные фильмы 2016-2019 (Новинки зарубежного кино) ·· Пассажиры / Passengers (Мортен Тильдум / Morten Tyldum) [2016, США, фантастика, триллер, драма, HDRip] AVO (Смирнов) Galfimbul 15676149761.46 GB 0 0 1523732468

22:01

14-Апр-18

Зарубежные фильмы 2016-2019 (Новинки зарубежного кино) ·· Пассажиры / Passengers (Morten Tyldum Мортен Тильдум) [2016, фантастика, драма, мелодрама, BDRip 1080p] D, A | Лицензия Galfimbul 1893756038117.64 GB 0 0 1518356482

16:41

11-Фев-18

Зарубежные фильмы 2016-2019 (Новинки зарубежного кино) ·· Пассажиры / Passengers (Morten Tyldum Мортен Тильдум) [2016, фантастика, драма, мелодрама, DVD9] Лицензия Galfimbul 77627207687.23 GB 0 0 1518294032

23:20

10-Фев-18

Зарубежные фильмы 2016-2019 (Новинки зарубежного кино) ·· Пассажиры / Passengers (Morten Tyldum Мортен Тильдум) [2016, фантастика, драма, мелодрама, BDRip 2160p] Galfimbul 3783620020235.24 GB 0 0 1505195426

08:50

12-Сен-17

Зарубежные фильмы 2016-2019 (Новинки зарубежного кино) ·· Пассажиры / Passengers (Мортен Тильдум / Morten Tyldum) [2016, США, фантастика, драма, мелодрама, приключения, BDRip] AVO (Юрий Сербин) Galfimbul 15562301441.45 GB 0 0 1501295419

05:30

29-Июл-17

Зарубежные фильмы до 2016 ·· Пассажиры / Passengers (Мортен Тильдум / Morten Tyldum) [2016, США, Фантастика, драма, мелодрама, приключения, DVD5 (сжатый)] исх. R2, Dub + Sub Rus + Original Eng Galfimbul 46975754244.37 GB 0 0 1500575771

21:36

20-Июл-17

Трейлеры и дополнительные материалы ·· Пассажиры / Passengers (Morten Tyldum Мортен Тильдум) [2016, фантастика, драма, мелодрама, BDRip] дополнительные материалы Galfimbul 59030092995.5 GB 0 0 1497989366

23:09

20-Июн-17

Трейлеры и дополнительные материалы ·· Пассажиры / Passengers (Мортен Тильдум) [2016, фантастика, драма, мелодрама, BluRay] удаленные сцены Galfimbul 13049096871.22 GB 0 0 1494656164

09:16

13-Май-17

Зарубежные фильмы до 2016 ·· Пассажиры / Passengers (Мортен Тильдум / Morten Tyldum) [2016, США, фантастика, драма, мелодрама, приключения, BD> DVD9 (Custom)] DUB + AVO + Sub Rus / Eng + Original Eng Galfimbul 83417047047.77 GB 0 0 1491411248

19:54

5-Апр-17

Зарубежные фильмы до 2016 ·· Пассажиры / Passengers (Мортен Тильдум / Morten Tyldum) [2016, США, фантастика, драма, мелодрама, Blu-ray disc 1080p] [EUR] Dub + Sub Rus, Eng + Original Eng Galfimbul 4172635861038.86 GB 0 0 1490201929

19:58

22-Мар-17

Зарубежные фильмы до 2016 ·· Пассажиры / Passengers (Мортен Тильдум / Morten Tyldum) [2016, США, фантастика, драма, мелодрама, приключения, BDRip 720p] Dub (iTunes) + Sub Rus, Ukr, Eng + Original Eng Galfimbul 57552608405.36 GB 0 0 1489100039

01:53

10-Мар-17

Зарубежные фильмы 2016-2019 (Новинки зарубежного кино) ·· Пассажиры / Passengers (Мортен Тильдум / Morten Tyldum) [2016, США, фантастика, драма, мелодрама, приключения, BDRip-AVC] Dub Rus, Ukr (iTunes) + Sub Rus, Ukr, Eng + Original Eng Galfimbul 31982282512.98 GB 0 0 1488637058

17:17

4-Мар-17

Еще никто не оставлял запись к записи скачать торрент Пассажиры Passengers . Будь первым!

!Обратная связь