Скачать через торрент Пазманский дьявол Bleed for This Фильм бесплатно в хорошем качестве torrent

Скачивайте на UnionPeer.org фильмы через торрент без регистрации. Новинки кино в хорошем качестве через торрент. На UnionPeer.org можно скачать через торрент фильмы 2014 и 2015 годов. Самые новые фильмы.

Скачать торрент Пазманский дьявол Bleed for This бесплатно через .torrent фильм мультфильм сериал

Статистика раздачи
Размер:  4.72 GB   |    Зарегистрирован:  6 лет 11 месяцев   |    .torrent скачан:  97 раз   |   
Раздают:  1  
 

Скачать Пазманский дьявол / Bleed for This (Бен Янгер / Ben Younger) [2016, США, Драма, биография, спорт, BDRip 720p] Dub (iTunes) + Sub Eng + Original Eng через torrent

 
 
Автор Сообщение

Galfimbul

avatar Galfimbul


Пазманский дьявол / Bleed for This

Страна: США
Жанр: Драма, биография, спорт
Год выпуска: 2016
Продолжительность: 01:57:03

Перевод: Профессиональный (дублированный) iTunes
Cубтитры: английские
Оригинальная аудиодорожка: английский

Режиссер: Бен Янгер / Ben Younger

В ролях: Майлз Теллер, Аарон Экхарт, Кэти Сагал, Киаран Хайндс, Тед Левайн, Джордан Гелбер, Аманда Клэйтон, Дэниэл Саули, Кристин Евангелиста, Тина Каскиани

Описание: Винни Пациенца — один из самых выдающихся чемпионов по боксу. Молодой, яркий, безрассудный… Его называли Пазманским дьяволом. Его карьера была на самом пике, но страшная авария в одночасье разрушила все планы. Врачи говорили, что он больше никогда не сможет ходить. Однако Винни решил вернуться на ринг во что бы то ни стало.

Сэмпл: http://multi-up.com/1143197

Качество видео: BDRip 720р
Формат видео: MKV

Видео: AVC 5000 Кбит/сек 1280 x 534 (2.397) 23.976 fps
Аудио: AC3, 5.1, 384 Kbps, 48 kHz
Аудио 2: AC3, 5.1, 384 Kbps, 48 kHz
Формат : Matroska
Версия формата : Version 4 / Version 2
Размер файла : 4,72 Гбайт
Продолжительность : 1 ч. 57 м.
Общий поток : 5770 Кбит/сек
Дата кодирования : UTC 2017-03-02 07:59:32
Программа кодирования : mkvmerge v9.6.0 ('Slave To Your Mind') 32bit
Библиотека кодирования : libebml v1.3.4 + libmatroska v1.4.5
Обложка : Yes
Attachments : cover.jpg

Видео
Идентификатор : 1
Формат : AVC
Формат/Информация : Advanced Video Codec
Профиль формата : [email protected]
Параметр CABAC формата : Да
Параметр ReFrames формата : 12 кадров
Идентификатор кодека : V_MPEG4/ISO/AVC
Продолжительность : 1 ч. 57 м.
Битрейт : 5000 Кбит/сек
Ширина : 1280 пикселей
Высота : 534 пикселя
Соотношение сторон : 2,40:1
Режим частоты кадров : Постоянный
Частота кадров : 23,976 (24000/1001) кадра/сек
Цветовое пространство : YUV
Субдискретизация насыщенности : 4:2:0
Битовая глубина : 8 бит
Тип развёртки : Прогрессивная
Бит/(Пиксели*Кадры) : 0.305
Размер потока : 4,09 Гбайт (87%)
Библиотека кодирования : x264 core 148 r2665kMod a01e339
Настройки программы : cabac=1 / ref=12 / deblock=1:-3:-3 / analyse=0x3:0x133 / me=umh / subme=11 / psy=1 / fade_compensate=0.00 / psy_rd=1.05:0.00 / mixed_ref=1 / me_range=32 / chroma_me=1 / trellis=2 / 8x8dct=1 / cqm=0 / deadzone=21,11 / fast_pskip=0 / chroma_qp_offset=-2 / threads=12 / lookahead_threads=2 / sliced_threads=0 / nr=0 / decimate=0 / interlaced=0 / bluray_compat=0 / constrained_intra=0 / fgo=0 / bframes=8 / b_pyramid=2 / b_adapt=2 / b_bias=0 / direct=3 / weightb=1 / open_gop=0 / weightp=2 / keyint=240 / keyint_min=24 / scenecut=40 / intra_refresh=0 / rc=2pass / mbtree=0 / bitrate=5000 / ratetol=1.0 / qcomp=0.70 / qpmin=0 / qpmax=69 / qpstep=4 / cplxblur=20.0 / qblur=0.5 / ip_ratio=1.20 / pb_ratio=1.20 / aq=3:0.85
Язык : English
Default : Да
Forced : Нет

Аудио #1
Идентификатор : 2
Формат : AC-3
Формат/Информация : Audio Coding 3
Расширение режима : CM (complete main)
Параметр Endianness формата : Big
Идентификатор кодека : A_AC3
Продолжительность : 1 ч. 57 м.
Вид битрейта : Постоянный
Битрейт : 384 Кбит/сек
Каналы : 6 каналов
Расположение каналов : Front: L C R, Side: L R, LFE
Частота : 48,0 КГц
Частота кадров : 31,250 кадров/сек (1536 spf)
Битовая глубина : 16 бит
Метод сжатия : С потерями
Размер потока : 321 Мбайт (7%)
Заголовок : iTunes
Язык : Russian
Default : Да
Forced : Нет

Аудио #2
Идентификатор : 3
Формат : AC-3
Формат/Информация : Audio Coding 3
Расширение режима : CM (complete main)
Параметр Endianness формата : Big
Идентификатор кодека : A_AC3
Продолжительность : 1 ч. 57 м.
Вид битрейта : Постоянный
Битрейт : 384 Кбит/сек
Каналы : 6 каналов
Расположение каналов : Front: L C R, Side: L R, LFE
Частота : 48,0 КГц
Частота кадров : 31,250 кадров/сек (1536 spf)
Битовая глубина : 16 бит
Метод сжатия : С потерями
Размер потока : 321 Мбайт (7%)
Язык : English
Default : Нет
Forced : Нет

Текст #1
Идентификатор : 4
Формат : UTF-8
Идентификатор кодека : S_TEXT/UTF8
Идентификатор кодека/Информация : UTF-8 Plain Text
Продолжительность : 1 ч. 51 м.
Битрейт : 62 бит/сек
Count of elements : 1531
Размер потока : 50,7 Кбайт (0%)
Заголовок : Full
Язык : English
Default : Нет
Forced : Нет

Текст #2
Идентификатор : 5
Формат : UTF-8
Идентификатор кодека : S_TEXT/UTF8
Идентификатор кодека/Информация : UTF-8 Plain Text
Продолжительность : 1 ч. 52 м.
Битрейт : 64 бит/сек
Count of elements : 1681
Размер потока : 53,1 Кбайт (0%)
Заголовок : SDH
Язык : English
Default : Нет
Forced : Нет

Текст #3
Идентификатор : 6
Формат : UTF-8
Идентификатор кодека : S_TEXT/UTF8
Идентификатор кодека/Информация : UTF-8 Plain Text
Продолжительность : 1 ч. 54 м.
Битрейт : 76 бит/сек
Count of elements : 1682
Размер потока : 64,0 Кбайт (0%)
Заголовок : SDH [Colored]
Язык : English
Default : Нет
Forced : Нет

Меню
00:00:00.000 : en:00:00:00.000
00:05:14.439 : en:00:05:14.439
00:10:26.918 : en:00:10:26.918
00:15:01.943 : en:00:15:01.943
00:20:58.674 : en:00:20:58.674
00:26:32.216 : en:00:26:32.216
00:33:33.511 : en:00:33:33.511
00:41:22.188 : en:00:41:22.188
00:49:25.171 : en:00:49:25.171
00:54:04.324 : en:00:54:04.324
00:58:46.690 : en:00:58:46.690
01:03:30.932 : en:01:03:30.932
01:10:14.502 : en:01:10:14.502
01:14:14.950 : en:01:14:14.950
01:20:23.986 : en:01:20:23.986
01:25:27.039 : en:01:25:27.039
01:31:45.583 : en:01:31:45.583
01:37:03.067 : en:01:37:03.067
01:44:24.425 : en:01:44:24.425
01:50:24.868 : en:01:50:24.868


Внимание! AdBlock блокирует показ скриншотов, все вопросы к разработчикам )))
Трекер:  [ 10-Мар-2017 01:00 ]

  

Скачать .torrent

Размер .torrent файла 24 KB


Размер: 4.72 GB
Хэш (hash) релиза: aa49ce8556b571dc81ac375a8c6de8121e604cc0
Подписка на обновления:

Торренты, похожие на Пазманский дьявол Bleed for This скачать торрент

Форум Название Автор Размер S L Добавлен
Зарубежные фильмы 2016-2019 (Новинки зарубежного кино) ·· Пазманский дьявол / Bleed for This (Бен Янгер / Ben Younger) [2016, США, драма, биография, спорт, BDRip-AVC] Dub + Original Eng + Sub Eng Galfimbul 23455260882.18 GB 0 0 1488718561

15:56

5-Мар-17

Зарубежные фильмы 2016-2019 (Новинки зарубежного кино) ·· Пазманский дьявол / Bleed for This (Бен Янгер / Ben Younger) [2016, США, драма, биография, спорт, BDRip] Dub (iTunes) Galfimbul 15687843841.46 GB 0 0 1488475785

20:29

2-Мар-17

Зарубежные фильмы 2016-2019 (Новинки зарубежного кино) ·· Пазманский дьявол / Bleed for This (Бен Янгер) [2016, драма, биография, спорт, BDRip 720p] Galfimbul 53361820114.97 GB 0 0 1488280431

14:13

28-Фев-17

Зарубежные фильмы 2016-2019 (Новинки зарубежного кино) ·· Пазманский дьявол / Bleed for This (Бен Янгер) [2016, драма, биография, спорт, BDRip 1080p] Galfimbul 102866159459.58 GB 0 0 1488280424

14:13

28-Фев-17

Зарубежные фильмы 2016-2019 (Новинки зарубежного кино) ·· Пазманский дьявол / Bleed for This (Бен Янгер) [2016, драма, биография, спорт, HDRip] Galfimbul 15647191041.46 GB 0 0 1488278615

13:43

28-Фев-17

Еще никто не оставлял запись к записи скачать торрент Пазманский дьявол Bleed for This . Будь первым!

!Обратная связь