Скачать через торрент Шпионы по соседству Keeping Up with the Joneses Фильм бесплатно в хорошем качестве torrent

Скачивайте на UnionPeer.org фильмы через торрент без регистрации. Новинки кино в хорошем качестве через торрент. На UnionPeer.org можно скачать через торрент фильмы 2014 и 2015 годов. Самые новые фильмы.

Скачать торрент Шпионы по соседству Keeping Up with the Joneses бесплатно через .torrent фильм мультфильм сериал

Статистика раздачи
Размер:  16.29 GB   |    Зарегистрирован:  6 лет 11 месяцев   |    .torrent скачан:  43 раза   |   
Раздают:  1  
 

Скачать Шпионы по соседству / Keeping Up with the Joneses (Грег Моттола / Greg Mottola) [2016, США, боевик, комедия, BDRip 1080p] Dub (BD EUR) + Sub Rus, Eng + Original Eng через torrent

 
 
Автор Сообщение

Galfimbul

avatar Galfimbul


Шпионы по соседству / Keeping Up with the Joneses

Страна: США
Студия: Fox 2000 Pictures, MacDonald/Parkes Productions
Жанр: боевик, комедия
Год выпуска: 2016
Продолжительность: 01:45:21

Перевод: Профессиональный (дублированный) BD EUR
Cубтитры: Русские, Украинские, Английские
Оригинальная аудиодорожка: английский

Режиссер: Грег Моттола / Greg Mottola

В ролях: Зак Галифианакис, Айла Фишер, Джон Хэмм, Галь Гадот, Пэттон Освальт, Минг Жао, Мэтт Уолш, Мэрибет Монро, Майкл Лью, Кевин Данн

Описание: Супружеская пара из пригорода оказывается втянутой в международный шпионский заговор, когда обнаруживает, что их, казалось бы, идеальные новые соседи являются правительственными агентами.

Доп. информация:
Рип от TayTO.

Сэмпл: https://cloud.mail.ru/public/EUEr/5L3ALgPbn

Тип релиза: BDRip 1080p
Контейнер: MKV

Видео: MPEG-4 AVC, 19,4 Мбит/с, 1920x800, 23,976 fps
Аудио 1: Rus, DTS, 768 kb/s (6 ch), 48 kHz
Аудио 2: Ukr, AC3, 448 kb/s (6 ch), 48 kHz
Аудио 3: Eng, DTS-ES, 1509 kb/s (6 ch), 48 kHz
Формат субтитров: softsub (SRT)
x264 [info]: frame I:1326 Avg QP:17.50 size:248310
x264 [info]: frame P:29627 Avg QP:18.52 size:126602
x264 [info]: frame B:120583 Avg QP:19.98 size: 93354
x264 [info]: consecutive B-frames: 1.7% 1.2% 5.7% 10.9% 12.7% 58.8% 5.4% 1.4% 1.2% 1.0%



<div class="post-box">.NOTES:

Special thanks to everyone who helped with the subtitles.
Applied F3kdb ConditionalFilter for some scenes visible banding/blocking.
Fillmargins and Balanceborders ConditionalFilter were used to fixed some different dirty lines.
Greetings: Nick007, v0danh, BodoiCuHo, riverstore, rose, wolgone, Friday, AraGorN, NOiZE and my friends !
</div>
Общее
Уникальный идентификатор : 198556174065942124902903133661091559570 (0x956087335FC39831BACB934C13E77892)
Полное имя : Keeping.Up.with.the.Joneses.2016.BDRip.1080p.mkv
Формат : Matroska
Версия формата : Version 4 / Version 2
Размер файла : 16,3 Гбайт
Продолжительность : 1 ч. 45 м.
Общий поток : 22,1 Мбит/сек
Дата кодирования : UTC 2017-03-11 17:07:25
Программа кодирования : mkvmerge v9.9.0 ('Pick Up') 64bit
Библиотека кодирования : libebml v1.3.4 + libmatroska v1.4.5

Видео
Идентификатор : 1
Формат : AVC
Формат/Информация : Advanced Video Codec
Профиль формата : [email protected]
Параметр CABAC формата : Да
Параметр ReFrames формата : 5 кадров
Идентификатор кодека : V_MPEG4/ISO/AVC
Продолжительность : 1 ч. 45 м.
Битрейт : 19,4 Мбит/сек
Ширина : 1920 пикселей
Высота : 800 пикселей
Соотношение сторон : 2,40:1
Режим частоты кадров : Постоянный
Частота кадров : 23,976 (24000/1001) кадра/сек
Цветовое пространство : YUV
Субдискретизация насыщенности : 4:2:0
Битовая глубина : 8 бит
Тип развёртки : Прогрессивная
Бит/(Пиксели*Кадры) : 0.527
Размер потока : 14,3 Гбайт (88%)
Библиотека кодирования : x264 core 148 r2705+54 9f484c1 t_mod_Custom [8-bit@all X86_64]
Настройки программы : cabac=1 / ref=5 / deblock=1:-3:-3 / analyse=0x3:0x133 / me=umh / subme=11 / psy=1 / fade_compensate=0.00 / psy_rd=1.05:0.00 / mixed_ref=1 / me_range=32 / chroma_me=1 / trellis=2 / 8x8dct=1 / cqm=0 / deadzone=21,11 / fast_pskip=0 / chroma_qp_offset=-2 / threads=12 / lookahead_threads=2 / sliced_threads=0 / nr=0 / decimate=0 / interlaced=0 / bluray_compat=0 / constrained_intra=0 / fgo=0 / bframes=9 / b_pyramid=2 / b_adapt=2 / b_bias=0 / direct=3 / weightb=1 / open_gop=0 / weightp=2 / keyint=250 / keyint_min=23 / scenecut=40 / intra_refresh=0 / rc_lookahead=60 / rc=crf / mbtree=0 / crf=18.3000 / qcomp=0.65 / qpmin=0:0:0 / qpmax=69:69:69 / qpstep=4 / vbv_maxrate=62500 / vbv_bufsize=78125 / crf_max=0.0 / nal_hrd=none / filler=0 / ip_ratio=1.30 / pb_ratio=1.20 / aq=3:0.80 / aq-sensitivity=10.00 / aq-factor=1.00:1.00:1.00 / aq2=0 / aq3=0 / zones=72,574,crf=15/6587,6888,crf=17/28037,28439,crf=17/29227,29261,crf=17/29489,29545,crf=17/29603,29637,crf=17/29708,29758,crf=17/30837,30893,crf=17/37914,38176,crf=15/38478,38561,crf=15/38666,38821,crf=15/38867,38953,crf=15/63420,63508,crf=17/68704,68787,crf=15/82340,82371,crf=14/84825,84853,crf=14/95829,95894,crf=15/98336,98416,crf=15/98500,98556,crf=15/98613,98650,crf=15/98674,98713,crf=16/98756,98791,crf=15/99080,99198,crf=14/101155,101181,crf=14/110855,111096,crf=15/111211,112450,crf=16/132888,132922,crf=14/132956,132997,crf=15/136460,136547,crf=15/136640,136680,crf=14/143050,151535,crf=22
Язык : English
Default : Да
Forced : Нет
Цветовой диапазон : Limited
Коэффициенты матрицы : BT.709

Аудио #1
Идентификатор : 2
Формат : DTS
Формат/Информация : Digital Theater Systems
Режим : 16
Параметр Endianness формата : Big
Идентификатор кодека : A_DTS
Продолжительность : 1 ч. 45 м.
Вид битрейта : Постоянный
Битрейт : 768 Кбит/сек
Каналы : 6 каналов
Расположение каналов : Front: L C R, Side: L R, LFE
Частота : 48,0 КГц
Частота кадров : 93,750 кадра/сек (512 spf)
Битовая глубина : 24 бит
Метод сжатия : С потерями
Размер потока : 579 Мбайт (3%)
Заголовок : Blu-ray EUR
Язык : Russian
Default : Да
Forced : Нет

Аудио #2
Идентификатор : 3
Формат : AC-3
Формат/Информация : Audio Coding 3
Расширение режима : CM (complete main)
Параметр Endianness формата : Big
Идентификатор кодека : A_AC3
Продолжительность : 1 ч. 45 м.
Вид битрейта : Постоянный
Битрейт : 448 Кбит/сек
Каналы : 6 каналов
Расположение каналов : Front: L C R, Side: L R, LFE
Частота : 48,0 КГц
Частота кадров : 31,250 кадров/сек (1536 spf)
Метод сжатия : С потерями
Размер потока : 338 Мбайт (2%)
Заголовок : Blu-ray EUR
Язык : Ukrainian
Default : Нет
Forced : Нет

Аудио #3
Идентификатор : 4
Формат : DTS
Формат/Информация : Digital Theater Systems
Профиль формата : ES Matrix / Core
Режим : 16
Параметр Endianness формата : Big
Идентификатор кодека : A_DTS
Продолжительность : 1 ч. 45 м.
Вид битрейта : Постоянный
Битрейт : 1509 Кбит/сек
Каналы : 7 каналов / 6 каналов
Расположение каналов : Front: L C R, Side: L R, Back: C, LFE / Front: L C R, Side: L R, LFE
Частота : 48,0 КГц
Частота кадров : 93,750 кадра/сек (512 spf)
Битовая глубина : 24 бит
Метод сжатия : С потерями
Размер потока : 1,11 Гбайт (7%)
Язык : English
Default : Нет
Forced : Нет

Текст #1
Идентификатор : 5
Формат : UTF-8
Идентификатор кодека : S_TEXT/UTF8
Идентификатор кодека/Информация : UTF-8 Plain Text
Продолжительность : 1 ч. 44 м.
Битрейт : 1 бит/сек
Count of elements : 20
Размер потока : 1,11 Кбайт (0%)
Заголовок : Forced
Язык : Russian
Default : Да
Forced : Нет

Текст #2
Идентификатор : 6
Формат : UTF-8
Идентификатор кодека : S_TEXT/UTF8
Идентификатор кодека/Информация : UTF-8 Plain Text
Продолжительность : 1 ч. 44 м.
Битрейт : 131 бит/сек
Count of elements : 2007
Размер потока : 100 Кбайт (0%)
Язык : Russian
Default : Нет
Forced : Нет

Текст #3
Идентификатор : 7
Формат : UTF-8
Идентификатор кодека : S_TEXT/UTF8
Идентификатор кодека/Информация : UTF-8 Plain Text
Продолжительность : 1 ч. 44 м.
Битрейт : 129 бит/сек
Count of elements : 2012
Размер потока : 98,9 Кбайт (0%)
Язык : Ukrainian
Default : Нет
Forced : Нет

Текст #4
Идентификатор : 8
Формат : UTF-8
Идентификатор кодека : S_TEXT/UTF8
Идентификатор кодека/Информация : UTF-8 Plain Text
Продолжительность : 16 с.
Битрейт : 88 бит/сек
Count of elements : 5
Размер потока : 185 байт (0%)
Заголовок : Forced
Язык : English
Default : Нет
Forced : Нет

Текст #5
Идентификатор : 9
Формат : UTF-8
Идентификатор кодека : S_TEXT/UTF8
Идентификатор кодека/Информация : UTF-8 Plain Text
Продолжительность : 1 ч. 39 м.
Битрейт : 92 бит/сек
Count of elements : 1947
Размер потока : 67,6 Кбайт (0%)
Язык : English
Default : Нет
Forced : Нет

Текст #6
Идентификатор : 10
Формат : UTF-8
Идентификатор кодека : S_TEXT/UTF8
Идентификатор кодека/Информация : UTF-8 Plain Text
Продолжительность : 1 ч. 40 м.
Битрейт : 99 бит/сек
Count of elements : 2120
Размер потока : 73,0 Кбайт (0%)
Заголовок : SDH
Язык : English
Default : Нет
Forced : Нет

Меню
00:00:00.000 : en:00:00:00.000
00:03:43.473 : en:00:03:43.473
00:06:41.651 : en:00:06:41.651
00:09:55.845 : en:00:09:55.845
00:13:28.182 : en:00:13:28.182
00:17:06.025 : en:00:17:06.025
00:21:07.933 : en:00:21:07.933
00:26:02.311 : en:00:26:02.311
00:30:07.514 : en:00:30:07.514
00:33:56.743 : en:00:33:56.743
00:37:43.761 : en:00:37:43.761
00:40:59.457 : en:00:40:59.457
00:45:35.149 : en:00:45:35.149
00:49:00.312 : en:00:49:00.312
00:52:35.152 : en:00:52:35.152
00:55:59.189 : en:00:55:59.189
01:00:50.230 : en:01:00:50.230
01:04:33.244 : en:01:04:33.244
01:08:47.665 : en:01:08:47.665
01:12:04.654 : en:01:12:04.654
01:15:58.554 : en:01:15:58.554
01:19:31.809 : en:01:19:31.809
01:22:46.545 : en:01:22:46.545
01:25:43.972 : en:01:25:43.972
01:29:02.295 : en:01:29:02.295
01:31:44.874 : en:01:31:44.874
01:34:18.528 : en:01:34:18.528
01:37:32.680 : en:01:37:32.680


Внимание! AdBlock блокирует показ скриншотов, все вопросы к разработчикам )))
Трекер:  [ 11-Мар-2017 15:30 ]

  

Скачать .torrent

Размер .torrent файла 41 KB


Размер: 16.29 GB
Хэш (hash) релиза: a20f3561bcdd42a3cdba0bacd495384922e420af
Подписка на обновления:

Торренты, похожие на Шпионы по соседству Keeping Up with the Joneses скачать торрент

Форум Название Автор Размер S L Добавлен
Зарубежные фильмы до 2016 ·· Шпионы по соседству / Keeping Up with the Joneses (Грег Моттола / Greg Mottola) [2016, США, Боевик, комедия, DVD5 (сжатый)] исх. R2, Dub + Sub Rus + Original Eng Galfimbul 46964469764.37 GB 0 0 1498755991

20:06

29-Июн-17

Зарубежные фильмы до 2016 ·· Шпионы по соседству / Keeping Up with the Joneses (Грег Моттола / Greg Mottola) [2016, США, боевик, комедия, DVD9] Dub + Sub Eng + Original Eng Galfimbul 75820470297.06 GB 0 0 1496860570

21:36

7-Июн-17

Зарубежные фильмы 2016-2019 (Новинки зарубежного кино) ·· Шпионы по соседству / Keeping Up with the Joneses (Грег Моттола / Greg Mottola) [2016, США, боевик, комедия, BDRip] Dub Galfimbul 784181248748 MB 0 0 1484234799

18:26

12-Янв-17

Зарубежные фильмы 2016-2019 (Новинки зарубежного кино) ·· Шпионы по соседству / Keeping Up with the Joneses (Грег Моттола / Greg Mottola) [2016, США, Боевик, комедия, BDRip] Dub (iTunes) + Sub Rus Galfimbul 15196510731.42 GB 0 0 1484234796

18:26

12-Янв-17

Зарубежные фильмы 2016-2019 (Новинки зарубежного кино) ·· Шпионы по соседству / Keeping Up with the Joneses (Грег Моттола / Greg Mottola) [2016, США, боевик, комедия, BDRip-AVC] Dub + Original Eng + Sub (Rus, Eng) Galfimbul 23440265142.18 GB 0 0 1484234778

18:26

12-Янв-17

Зарубежные фильмы 2016-2019 (Новинки зарубежного кино) ·· Шпионы по соседству / Keeping Up with the Joneses (Грег Моттола / Greg Mottola) [2016, США, Боевик, комедия,BDRip] Dub (iTunes) + Original + Sub (Rus,eng) Galfimbul 22988167862.14 GB 0 0 1484234766

18:26

12-Янв-17

Зарубежные фильмы 2016-2019 (Новинки зарубежного кино) ·· Шпионы по соседству / Keeping Up with the Joneses (Грег Моттола / Greg Mottola) [2016, США, Боевик, комедия,BDRip] Dub (iTunes) + Original + Sub (Rus,,eng) Galfimbul 22988167862.14 GB 0 0 1483894784

19:59

8-Янв-17

Зарубежные фильмы до 2016 ·· Шпионы по соседству / Keeping Up with the Joneses (Грег Моттола / Greg Mottola) [2016, США, боевик, комедия, BDRip 1080p] Dub (iTunes) + Sub Rus, Eng + Original Eng Galfimbul 1555986670714.49 GB 0 0 1483725661

21:01

6-Янв-17

Зарубежные фильмы 2016-2019 (Новинки зарубежного кино) ·· Шпионы по соседству / Keeping Up with the Joneses (Грег Моттола / Greg Mottola) [2016, США, боевик, комедия, BDRip 1080p] iTunes Galfimbul 85169809517.93 GB 0 0 1483699956

13:52

6-Янв-17

Зарубежные фильмы до 2016 ·· Шпионы по соседству / Keeping Up with the Joneses (Грег Моттола / Greg Mottola) [2016, США, боевик, комедия, BDRip 720p] Dub (iTunes) + Sub Rus, Eng + Original Eng Galfimbul 67130452956.25 GB 0 0 1483694207

12:16

6-Янв-17

Зарубежные фильмы 2016-2019 (Новинки зарубежного кино) ·· Шпионы по соседству / Keeping Up with the Joneses (Грег Моттола / Greg Mottola) [2016, США, Боевик, комедия, WEB-DLRip] Dub (iTunes) + Sub Rus Galfimbul 15674747791.46 GB 0 0 1483442251

14:17

3-Янв-17

Зарубежные фильмы 2016-2019 (Новинки зарубежного кино) ·· Шпионы по соседству / Keeping Up with the Joneses (Грег Моттола / Greg Mottola) [2016, США, Боевик, комедия, WEB-DLRip] Dub (iTunes) + Original + Sub (Ru,ukr,eng) Galfimbul 23008103032.14 GB 0 0 1483185459

14:57

31-Дек-16

Зарубежные фильмы 2016-2019 (Новинки зарубежного кино) ·· Шпионы по соседству / Keeping Up with the Joneses (Грег Моттола / Greg Mottola) [2016, США, боевик, комедия, WEB-DLRip-AVC] Dub + Sub (rus) Galfimbul 14826420751.38 GB 0 0 1483169890

10:38

31-Дек-16

Зарубежные фильмы до 2016 ·· Шпионы по соседству / Keeping Up with the Joneses (Грег Моттола / Greg Mottola) [2016, США, боевик, комедия, WEB-DL 1080p] Dub (iTunes) + Sub Rus, Eng + Original Eng Galfimbul 44658177114.16 GB 0 0 1483108209

17:30

30-Дек-16

Зарубежные фильмы 2016-2019 (Новинки зарубежного кино) ·· Шпионы по соседству / Keeping Up with the Joneses (Грег Моттола) [2016, боевик, комедия, CAMRip] Galfimbul 14679715841.37 GB 0 0 1478833870

06:11

11-Ноя-16

Еще никто не оставлял запись к записи скачать торрент Шпионы по соседству Keeping Up with the Joneses . Будь первым!

!Обратная связь