Скачать через торрент Найди меня, если сможешь Come and Find Me Фильм бесплатно в хорошем качестве torrent

Скачивайте на UnionPeer.org фильмы через торрент без регистрации. Новинки кино в хорошем качестве через торрент. На UnionPeer.org можно скачать через торрент фильмы 2014 и 2015 годов. Самые новые фильмы.

Скачать торрент Найди меня, если сможешь Come and Find Me бесплатно через .torrent фильм мультфильм сериал

Статистика раздачи
Размер:  1.46 GB   |    Зарегистрирован:  7 лет 2 месяца   |    .torrent скачан:  163 раза   |   
Раздают:  1  
 

Скачать Найди меня, если сможешь / Come and Find Me (Зак Уэдон / Zack Whedon) [2016, Великобритания, Триллер, драма, HDRip] MVO (iTunes) через torrent

 
 
Автор Сообщение

Galfimbul

avatar Galfimbul


Найди меня, если сможешь / Come and Find Me
Год выпуска: 2016
Выпущено: Великобритания / Automatik Entertainment
Жанр: триллер, драма
Продолжительность: 01:52:10
Перевод: Профессиональный (многоголосый, закадровый)
Cубтитры: нет
Режиссер:
Зак Уэдон / Zack Whedon
В ролях:
Аарон Пол (David), Аннабелль Уоллис (Claire), Гаррет Диллахант (John Hall), Терри Чен (Det. Chris Sloan), Захари Найтон (Charlie), Джордана Ларги (Mrs. Garan's Assistant), Валери Тиан (Student), Майкл Копса (Rezart), Дин Редман (Jackson), Джессика Хифи (Colleen)
Описание:
Клэр и Дэвид нашли друг друга и стали счастливой парой: ссорились, мирились и мечтали прожить вместе сто лет. Пока однажды Клэр не исчезла. В поисках любимой Дэвид сталкивается с криминальными авторитетами, сотрудниками спецслужб. Его чувствам предстоит подвергнуться серьезным испытаниям. Готов ли он идти до конца ради любви?
Релиз групп | | IMDB | КиноПоиск | Сэмпл |
Качество: HDRip [Come.and.Find.Me.2016.BDRip.720p]
Формат: AVI

Видео: 720x304 (2.37:1), 23.976 fps, XviD build 67 ~1466 kbps avg, 0.28 bit/pixel
Аудио: 48 kHz, AC3 Dolby Digital, 3/2 (L,C,R,l,r) + LFE ch, ~384 kbps - iTunes Russia
Общее
Полное имя                               : D:\Naidi_menya_esli_smozhesh`_2016_HDRip_iT_by_Dalemake.avi
Формат                                   : AVI
Формат/Информация                        : Audio Video Interleave
Размер файла                             : 1,46 Гбайт
Продолжительность                        : 1 ч. 52 м.
Общий поток                              : 1860 Кбит/сек
Программа кодирования                    : VirtualDubMod 1.5.10.3 | www.virtualdub-fr.org || (build 2550/release)
Библиотека кодирования                   : VirtualDubMod build 2550/release

Видео
Идентификатор                            : 0
Формат                                   : MPEG-4 Visual
Профиль формата                          : Advanced Simple@L5
Параметр BVOP формата                    : 1
Параметр QPel формата                    : Нет
Параметр GMC формата                     : Без точки перехода
Параметр матрицы формата                 : Выборочная
Идентификатор кодека                     : XVID
Идентификатор кодека/Подсказка           : XviD
Продолжительность                        : 1 ч. 52 м.
Битрейт                                  : 1467 Кбит/сек
Ширина                                   : 720 пикселей
Высота                                   : 304 пикселя
Соотношение сторон                       : 2,35:1
Частота кадров                           : 23,976 кадра/сек
Цветовое пространство                    : YUV
Субдискретизация насыщенности            : 4:2:0
Битовая глубина                          : 8 бит
Тип развёртки                            : Прогрессивная
Метод сжатия                             : С потерями
Бит/(Пиксели*Кадры)                      : 0.280
Размер потока                            : 1,15 Гбайт (79%)
Библиотека кодирования                   : XviD 67

Аудио
Идентификатор                            : 1
Формат                                   : AC-3
Формат/Информация                        : Audio Coding 3
Расширение режима                        : CM (complete main)
Параметр Endianness формата              : Big
Идентификатор кодека                     : 2000
Продолжительность                        : 1 ч. 52 м.
Вид битрейта                             : Постоянный
Битрейт                                  : 384 Кбит/сек
Каналы                                   : 6 каналов
Расположение каналов                     : Front: L C R, Side: L R, LFE
Частота                                  : 48,0 КГц
Битовая глубина                          : 16 бит
Метод сжатия                             : С потерями
Размер потока                            : 308 Мбайт (21%)
Выравнивание                             : Разделение по промежуткам
Продолжительность промежутка             : 42  мс. (1,00 видеокадр)
Время предзагрузки промежутка            : 500  мс.



Внимание! AdBlock блокирует показ скриншотов, все вопросы к разработчикам )))

Трекер:  [ 14-Мар-2017 07:00 ]

  

Скачать .torrent

Размер .torrent файла 15 KB


Размер: 1.46 GB
Хэш (hash) релиза: 694d4ee4d46d8516cffd7dae99e9801ab5d356a9
Подписка на обновления:

Торренты, похожие на Найди меня, если сможешь Come and Find Me скачать торрент

Форум Название Автор Размер S L Добавлен
Зарубежные фильмы 2016-2019 (Новинки зарубежного кино) ·· Найди меня, если сможешь / Come and Find Me (Зак Уэдон / Zack Whedon) [2016, Великобритания, триллер, драма, WEB-DLRip] MVO Galfimbul 780623872744 MB 0 0 1499491818

08:30

8-Июл-17

Зарубежные фильмы 2016-2019 (Новинки зарубежного кино) ·· Найди меня, если сможешь / Come and Find Me (Зак Уэдон) [2016 г., Драма, BDRip 1080p] iTunes Galfimbul 1299845094712.11 GB 0 0 1489473714

09:41

14-Мар-17

Зарубежные фильмы 2016-2019 (Новинки зарубежного кино) ·· Найди меня, если сможешь / Come and Find Me (Зак Уэдон) [2016 г., Драма, BDRip 720p] iTunes Galfimbul 73353496386.83 GB 0 0 1489473706

09:41

14-Мар-17

Зарубежные фильмы 2016-2019 (Новинки зарубежного кино) ·· Найди меня, если сможешь / Come and Find Me (Зак Уэдон) [2016 г., Драма, BDRip 1080p] Galfimbul 1175208802210.94 GB 0 0 1484282443

07:40

13-Янв-17

Зарубежные фильмы 2016-2019 (Новинки зарубежного кино) ·· Найди меня, если сможешь / Come and Find Me (Зак Уэдон) [2016 г., Драма, HDRip] Galfimbul 14674247681.37 GB 0 0 1484280638

07:10

13-Янв-17

Зарубежные фильмы 2016-2019 (Новинки зарубежного кино) ·· Найди меня, если сможешь / Come and Find Me (Зак Уэдон) [2016 г., Драма, BDRip 720p] Galfimbul 65398886096.09 GB 0 0 1484280634

07:10

13-Янв-17

Зарубежные фильмы 2016-2019 (Новинки зарубежного кино) ·· Найди меня, если сможешь / Come and Find Me (Зак Уэдон) [2016 г., Драма, WEB-DL 1080p] Line Galfimbul 43304107724.03 GB 0 0 1484115074

09:11

11-Янв-17

Еще никто не оставлял запись к записи скачать торрент Найди меня, если сможешь Come and Find Me . Будь первым!

!Обратная связь