Скачать через торрент Этот неловкий момент Un moment dégarement Фильм бесплатно в хорошем качестве torrent

Скачивайте на UnionPeer.org фильмы через торрент без регистрации. Новинки кино в хорошем качестве через торрент. На UnionPeer.org можно скачать через торрент фильмы 2014 и 2015 годов. Самые новые фильмы.

Скачать торрент Этот неловкий момент Un moment dégarement бесплатно через .torrent фильм мультфильм сериал

Статистика раздачи
Размер:  8.95 GB   |    Зарегистрирован:  7 лет 2 месяца   |    .torrent скачан:  98 раз   |   
Раздают:  1  
 

Скачать Этот неловкий момент / Un moment d'égarement (Жан-Франсуа Рише / Jean-François Richet) [2015, Франция, Бельгия, мелодрама, комедия, BDRip 1080p] Лицензия через torrent

 
 
Автор Сообщение

Galfimbul

avatar Galfimbul


Этот неловкий момент / Un moment d'?garement

Год выхода: 2015
Страна: Франция, Бельгия

Студия: La Petite Reine, Orange Studio, France 2 Cin?ma
Продолжительность: 01:45:28
Жанр: мелодрама, комедия, ...

Режиссер: Гленио Бондер
В ролях: Венсан Кассель, Лола Ле Ланн, Франсуа Клюзе, Алис Исааз, Филипп Наон, Аннелиз Эм, Лука Мельява, Ромейн Апельбаум, ...

Перевод: Профессиональный (дублированный) ?

О фильме: Два закадычных друга со своими дочерьми проводят отпуск на Ривьере, где на солнечных пляжах в 42-летнего отца семейства влюбляется соблазнительная 18-летняя красотка. Все бы ничего, да только прелестная девушка является дочерью лучшего друга — строгого отца, грозящего пристрелить любого, кто подойдет ближе, чем на шаг, к обожаемой малышке…



Кодек: x264
Качество: BDRip 1080p
Видео: 1920x1040 , 10000 kbps, 24 fps
Аудио #1: AC-3, 6 ch, 640 kbps (Rus) - Dub BD RUS
Аудио #3: DTS, 6 ch, 1509 kbps (Fre)
Субтитры: Французские (SDH)

Спасибо за исходник
x264 [info]: frame I:1106 Avg QP:16.68 size:246952
x264 [info]: frame P:33825 Avg QP:19.42 size: 97239
x264 [info]: frame B:116960 Avg QP:21.48 size: 37113
x264 [info]: consecutive B-frames: 2.1% 2.8% 6.7% 25.0% 20.6% 37.0% 4.7% 0.6% 0.3% 0.2% 0.3%

Общее
Уникальный идентификатор : 208850041318878648372221203985185597264 (0x9D1F0E0A67732E25A088FB23A0336750)
Полное имя : Этот неловкий момент (Un moment d'?garement) 2015 BDRip 1080p.mkv
Формат : Matroska
Версия формата : Version 2
Размер файла : 8,95 Гбайт
Продолжительность : 1 ч. 45 м.
Общий поток : 12,1 Мбит/сек
Дата кодирования : UTC 2017-03-14 09:26:25
Программа кодирования : mkvmerge v4.0.0 ('The Stars were mine') сборка от Jun 6 2010 16:18:42
Библиотека кодирования : libebml v1.0.0 + libmatroska v1.0.0

Видео
Идентификатор : 1
Формат : AVC
Формат/Информация : Advanced Video Codec
Профиль формата : [email protected]
Параметр CABAC формата : Да
Параметр ReFrames формата : 4 кадра
Идентификатор кодека : V_MPEG4/ISO/AVC
Продолжительность : 1 ч. 45 м.
Битрейт : 10000 Кбит/сек
Ширина : 1920 пикселей
Высота : 1040 пикселей
Соотношение сторон : 1,85:1
Режим частоты кадров : Постоянный
Частота кадров : 24,000 кадра/сек
Цветовое пространство : YUV
Субдискретизация насыщенности : 4:2:0
Битовая глубина : 8 бит
Тип развёртки : Прогрессивная
Бит/(Пиксели*Кадры) : 0.209
Размер потока : 7,18 Гбайт (80%)
Библиотека кодирования : x264 core 146 r2538 121396c
Настройки программы : cabac=1 / ref=4 / deblock=1:-3:-3 / analyse=0x3:0x133 / me=umh / subme=11 / psy=1 / psy_rd=1.00:0.00 / mixed_ref=1 / me_range=32 / chroma_me=1 / trellis=2 / 8x8dct=1 / cqm=0 / deadzone=21,11 / fast_pskip=0 / chroma_qp_offset=-2 / threads=12 / lookahead_threads=2 / sliced_threads=0 / nr=0 / decimate=0 / interlaced=0 / bluray_compat=0 / constrained_intra=0 / bframes=10 / b_pyramid=2 / b_adapt=2 / b_bias=0 / direct=3 / weightb=1 / open_gop=0 / weightp=2 / keyint=240 / keyint_min=24 / scenecut=40 / intra_refresh=0 / rc=2pass / mbtree=0 / bitrate=10000 / ratetol=1.0 / qcomp=0.60 / qpmin=0 / qpmax=69 / qpstep=4 / cplxblur=20.0 / qblur=0.5 / ip_ratio=1.40 / pb_ratio=1.30 / aq=1:0.80
Язык : French
Default : Нет
Forced : Нет

Аудио #1
Идентификатор : 2
Формат : AC-3
Формат/Информация : Audio Coding 3
Расширение режима : CM (complete main)
Параметр Endianness формата : Big
Идентификатор кодека : A_AC3
Продолжительность : 1 ч. 45 м.
Вид битрейта : Постоянный
Битрейт : 640 Кбит/сек
Каналы : 6 каналов
Расположение каналов : Front: L C R, Side: L R, LFE
Частота : 48,0 КГц
Битовая глубина : 16 бит
Метод сжатия : С потерями
Размер потока : 483 Мбайт (5%)
Заголовок : Dub BD RUS
Язык : Russian
Default : Нет
Forced : Нет

Аудио #2
Идентификатор : 3
Формат : DTS
Формат/Информация : Digital Theater Systems
Режим : 16
Параметр Endianness формата : Big
Идентификатор кодека : A_DTS
Продолжительность : 1 ч. 45 м.
Вид битрейта : Постоянный
Битрейт : 1509 Кбит/сек
Каналы : 6 каналов
Расположение каналов : Front: L C R, Side: L R, LFE
Частота : 48,0 КГц
Битовая глубина : 16 бит
Метод сжатия : С потерями
Размер потока : 1,11 Гбайт (12%)
Язык : French
Default : Нет
Forced : Нет

Текст
Идентификатор : 4
Формат : UTF-8
Идентификатор кодека : S_TEXT/UTF8
Идентификатор кодека/Информация : UTF-8 Plain Text
Язык : French
Default : Нет
Forced : Нет



Внимание! AdBlock блокирует показ скриншотов, все вопросы к разработчикам )))

Трекер:  [ 14-Мар-2017 13:00 ]

  

Скачать .torrent

Размер .torrent файла 45 KB


Размер: 8.95 GB
Хэш (hash) релиза: 97e05e9572a5c6992243f54a68c3136bc3eaacaa
Подписка на обновления:

Торренты, похожие на Этот неловкий момент Un moment dégarement скачать торрент

Форум Название Автор Размер S L Добавлен
Зарубежные фильмы до 2016 ·· Этот неловкий момент / Un moment d'égarement (Жан-Франсуа Рише / Jean-François Richet) [2015, Франция, Бельгия, Мелодрама, комедия, DVD9] R5 Dub Galfimbul 73824931846.88 GB 0 0 1525550534

23:02

5-Май-18

Зарубежные фильмы до 2016 ·· Этот неловкий момент / Un moment d'égarement (Жан-Франсуа Рише / Jean-François Richet) [2015, Франция, Бельгия, мелодрама, комедия, BDRip-AVC] Dub + Sub Fre Galfimbul 23865384162.22 GB 0 0 1489766651

19:04

17-Мар-17

Зарубежные фильмы до 2016 ·· Этот неловкий момент / Un moment d'égarement (Жан-Франсуа Рише / Jean-François Richet) [2015, Франция, комедия, BDRip] Dub Galfimbul 15658332161.46 GB 0 0 1489672696

16:58

16-Мар-17

Зарубежные фильмы до 2016 ·· Этот неловкий момент / Un moment d'égarement (Жан-Франсуа Рише / Jean-François Richet) [2015, Франция, Бельгия, мелодрама, комедия, Blu-ray disc 1080p] [RUS] Dub Galfimbul 2160513802420.12 GB 0 0 1489429409

21:23

13-Мар-17

Зарубежные фильмы до 2016 ·· Этот неловкий момент / Un moment d'égarement (Жан-Франсуа Рише / Jean-François Richet) [2015, Франция, Бельгия, Мелодрама, комедия, HDRip] Dub (HTB+) Galfimbul 784293888748 MB 0 0 1453730362

16:59

25-Янв-16

Еще никто не оставлял запись к записи скачать торрент Этот неловкий момент Un moment dégarement . Будь первым!

!Обратная связь