Скачать через торрент Потерянный во Флоренции Турист Фильм бесплатно в хорошем качестве torrent

Скачивайте на UnionPeer.org фильмы через торрент без регистрации. Новинки кино в хорошем качестве через торрент. На UnionPeer.org можно скачать через торрент фильмы 2014 и 2015 годов. Самые новые фильмы.

Скачать торрент Потерянный во Флоренции Турист бесплатно через .torrent фильм мультфильм сериал

Статистика раздачи
Размер:  1.14 GB   |    Зарегистрирован:  7 лет 2 месяца   |    .torrent скачан:  38 раз   |   
Раздают:  1  
   
 
Автор Сообщение

Galfimbul

avatar Galfimbul


Потерянный во Флоренции / Lost in Florence

Страна: США, Италия
Жанр: романтическая комедия, спортивный
Год выпуска: 2017
Продолжительность: 01:38:00

Перевод: субтитры (Lina, при участии ladySpais)
Cубтитры: русские, неотключаемые
Оригинальная аудиодорожка: английский, итальянский

Режиссер: Ивэн Оппенхаймер / Evan Oppenheimer

В ролях: Бретт Далтон (Brett Dalton), Стана Катич (Stana Katic), Алессандра Мастронарди (Alessandra Mastronardi), Алессандро Прециози (Alessandro Preziosi), Марко Бонини (Marco Bonini), Эмили Атак (Emily Atack), Федерико Мариньетти (Federico Marignetti), Никколо Канчелльери (Niccolo Cancellieri), Роберт Арамайо (Rob Aramayo) и др.

Описание: Эрик Ламберт (Бретт Далтон) отправляется в Италию с любимой девушкой, чтобы сделать ей предложение в романтичной обстановке. Но судьба решает распорядиться иначе - Эрик разочаровывается в любви, в женщинах и в целом в жизни. Он решает не возвращаться в США, пожить у своей сестры (Стана Катич) во Флоренции, где и знакомится с очаровательной девушкой по имени Стефания(Алессандра Мастронарди) и заинтересовывается кальчо-сторико – древним флорентийским футболом, поскольку этот вид спорта, как он думает, ему близок (он сам в прошлом – звезда американского футбола). Капитан команды (Алессандро Прециози) радушно принимает его. Однако удастся ли Эрику оправдать это доверие, оказанное ему гостеприимными итальянцами?

Сэмпл
Ссылка на предыдущие и альтернативные раздачи

Качество видео: WEBRip
Формат видео: MP4

Видео: AVC1, 1280x720, 24.000 fps, 1573 Kbps
Аудио: AAC, 48 KHz, 2 ch, 90 Kbps
Общее
Полное имя : G:\Download\Lost in Florence\Lost in Florence_sub rus.mp4
Формат : MPEG-4
Профиль формата : Base Media
Идентификатор кодека : isom
Размер файла : 1,14 Гбайт
Продолжительность : 1 ч. 38 м.
Общий поток : 1667 Кбит/сек
Программа кодирования : Lavf55.12.100

Видео
Идентификатор : 2
Формат : AVC
Формат/Информация : Advanced Video Codec
Профиль формата : [email protected]
Параметр CABAC формата : Да
Параметр ReFrames формата : 2 кадра
Идентификатор кодека : avc1
Идентификатор кодека/Информация : Advanced Video Coding
Продолжительность : 1 ч. 38 м.
Битрейт : 1573 Кбит/сек
Ширина : 1280 пикселей
Высота : 718 пикселей
Соотношение сторон : 16:9
Режим частоты кадров : Постоянный
Частота кадров : 24,000 кадра/сек
Цветовое пространство : YUV
Субдискретизация насыщенности : 4:2:0
Битовая глубина : 8 бит
Тип развёртки : Прогрессивная
Бит/(Пиксели*Кадры) : 0.071
Размер потока : 1,08 Гбайт (94%)

Аудио
Идентификатор : 1
Формат : AAC
Формат/Информация : Advanced Audio Codec
Профиль формата : LC
Идентификатор кодека : 40
Продолжительность : 1 ч. 38 м.
Вид битрейта : Постоянный
Битрейт : 90,0 Кбит/сек
Каналы : 2 канала
Расположение каналов : Front: L R
Частота : 48,0 КГц
Метод сжатия : С потерями
Размер потока : 63,2 Мбайт (5%)
Язык : English
P.S. релиз должен был быть приурочен к 8 марта, но по техническим причинам не совсем вышло.
От переводчиков всем женщинам поздравления. Прециози-почитателям отдельный привет!

Внимание! AdBlock блокирует показ скриншотов, все вопросы к разработчикам )))

Трекер:  [ 14-Мар-2017 13:00 ]

  

Скачать .torrent

Размер .torrent файла 12 KB


Размер: 1.14 GB
Хэш (hash) релиза: 7e9c3d233c353e14a36f4b14f120fe29a1dfdaae
Подписка на обновления:

Еще никто не оставлял запись к записи скачать торрент Потерянный во Флоренции Турист . Будь первым!

!Обратная связь