Скачать через торрент Она Elle Фильм бесплатно в хорошем качестве torrent

Скачивайте на UnionPeer.org фильмы через торрент без регистрации. Новинки кино в хорошем качестве через торрент. На UnionPeer.org можно скачать через торрент фильмы 2014 и 2015 годов. Самые новые фильмы.

Скачать торрент Она Elle бесплатно через .torrent фильм мультфильм сериал

Статистика раздачи
Размер:  14.85 GB   |    Зарегистрирован:  6 лет 11 месяцев   |    .torrent скачан:  60 раз   |   
Раздают:  1  
 

Скачать Она / Elle (Пол Верховен / Paul Verhoeven) [2016, Франция, Германия, Бельгия, триллер, драма, BDRip 1080p] DUB (iTunes) + AVO (Карповский) + Original Fre + Sub Fre, Eng через torrent

 
 
Автор Сообщение

Galfimbul

avatar Galfimbul


Она / Elle

Страна: Франция, Германия, Бельгия
Студия: SBS Productions, Twenty Twenty Vision Filmproduktion GmbH, France 2 Cinéma, Entre Chien et Loup, Canal+, France Télévisions, Orange Cinéma Séries, CNC
Жанр: Триллер, драма
Год выпуска: 2016
Продолжительность: 02:10:44

Перевод 1: Профессиональный дублированный - iTunes
Перевод 2: Авторский (одноголосый закадровый) Антон Карповский
Cубтитры: Французские (SDH), английские
Оригинальная аудиодорожка: Французский

Режиссер: Пол Верховен / Paul Verhoeven

В ролях: Изабель Юппер, Лоран Лафитт, Анн Косиньи, Шарль Берлинг, Виржини Эфира, Жюдит Магр, Кристиан Беркель, Йонас Блоке, Алис Исааз, Вимала Понс, Рафаэль Ленгле, Артюр Мазе, Люка Призор, Уго Конзельманн, Стефан Бак, Хью Мартел, Энн Лорье, Николя Бокер

Описание: Главная героиня Мишель - успешная по жизни мадам, с детства наделённая недюжинной силой характера и прошедшая трагические испытания детства, отстраивает себе обеспеченную жизнь, в среде любимых людей: подруги, сына, бывшего мужа, и любовника. В этом её мирке, всё потихонечку саднит мелкими психологическими ранами. Но она - Мишель, - кремень. Она жесткая, её считают воплощением зла и бывшие любовники, и родной непутёвый сын. Отец у Мишель отбывает пожизненный срок, мать собирается жениться, и она, женщина, отстроившая себе Успех в этой жизни, разуверившаяся в Боге, вдруг, подвергается изнасилованию у себя дома от неизвестного человека в маске...

Дополнительная информация:
Автор релиза -
Заказ перевода у Антона Карповского (январь 2017) - ylnian
За сборку дороги спасибо rammzez
Источник - Elle.2016.1080p.BluRay.DTS.x264-VietHD
Французские субтитры рипнуты мной с BD
Сохранены чаптеры с BD

Описание - из рецензии Антона Карповского

Рекламы нет!



Сэмпл: https://yadi.sk/i/1991bZf23APWZF

Качество видео: BDRip 1080p
Формат видео: MKV

Видео: MPEG-4, 1920x800 (2,40:1), 24.000 fps, 12900 kbps, 0.349 bit/pixel
Аудио 1: Русский AC3, 48000 Гц, 6ch, 384 kbps - DUB
Аудио 2: Русский DTS 5.1 / 48 kHz / 1509 kbps / 24-bit - AVO
Аудио 3: Французский DTS 5.1 / 48 kHz / 1509 kbps / 24-bit
Формат субтитров: softsub (SRT)
x264 [info]: frame I:1149 Avg QP:13.38 size:185580
x264 [info]: frame P:39028 Avg QP:14.79 size:105212
x264 [info]: frame B:148100 Avg QP:16.08 size: 55966
x264 [info]: consecutive B-frames: 2.4% 3.5% 6.7% 6.2% 8.1% 64.2% 3.9% 0.7% 2.9% 1.4%
encoded 188277 frames, 10.96 fps, 12857.37 kb/s, duration 4:46:21.42

Общее
Уникальный идентификатор : 235219530858324603426454588601205187507 (0xB0F5A2409DF0BDB1A4BCFB0C610EE3B3)
Полное имя : F:\Elle.2016.BDRip.1080p-ylnian.mkv
Формат : Matroska
Версия формата : Version 4 / Version 2
Размер файла : 14,9 Гбайт
Продолжительность : 2 ч. 10 м.
Общий поток : 16,3 Мбит/сек
Название фильма : Elle.2016.BDRip.1080p-ylnian
Дата кодирования : UTC 2017-03-15 10:15:20
Программа кодирования : mkvmerge v9.9.0 ('Pick Up') 64bit
Библиотека кодирования : libebml v1.3.4 + libmatroska v1.4.5

Видео
Идентификатор : 1
Формат : AVC
Формат/Информация : Advanced Video Codec
Профиль формата : [email protected]
Параметр CABAC формата : Да
Параметр ReFrames формата : 5 кадров
Идентификатор кодека : V_MPEG4/ISO/AVC
Продолжительность : 2 ч. 10 м.
Битрейт : 12,9 Мбит/сек
Ширина : 1920 пикселей
Высота : 800 пикселей
Соотношение сторон : 2,40:1
Режим частоты кадров : Постоянный
Частота кадров : 24,000 кадра/сек
Цветовое пространство : YUV
Субдискретизация насыщенности : 4:2:0
Битовая глубина : 8 бит
Тип развёртки : Прогрессивная
Бит/(Пиксели*Кадры) : 0.349
Размер потока : 11,7 Гбайт (79%)
Заголовок : Elle.2016.1080p.BluRay.DTS.x264-VietHD
Библиотека кодирования : x264 core 148 r2721kMod 72d53ab
Настройки программы : cabac=1 / ref=5 / deblock=1:-3:-3 / analyse=0x3:0x133 / me=umh / subme=10 / psy=1 / fade_compensate=0.00 / psy_rd=1.02:0.00 / mixed_ref=1 / me_range=24 / chroma_me=1 / trellis=2 / 8x8dct=1 / cqm=0 / deadzone=21,11 / fast_pskip=0 / chroma_qp_offset=-2 / threads=56 / lookahead_threads=6 / sliced_threads=0 / nr=0 / decimate=0 / interlaced=0 / bluray_compat=0 / constrained_intra=0 / fgo=0 / bframes=9 / b_pyramid=2 / b_adapt=2 / b_bias=0 / direct=3 / weightb=1 / open_gop=0 / weightp=2 / keyint=250 / keyint_min=24 / scenecut=40 / intra_refresh=0 / rc_lookahead=60 / rc=crf / mbtree=0 / crf=17.0000 / qcomp=0.60 / qpmin=0 / qpmax=69 / qpstep=4 / vbv_maxrate=62500 / vbv_bufsize=78125 / crf_max=0.0 / nal_hrd=none / filler=0 / ip_ratio=1.30 / pb_ratio=1.20 / aq=3:0.70
Язык : French
Default : Да
Forced : Да
Цветовой диапазон : Limited
Коэффициенты матрицы : BT.709

Аудио #1
Идентификатор : 2
Формат : AC-3
Формат/Информация : Audio Coding 3
Расширение режима : CM (complete main)
Параметр Endianness формата : Big
Идентификатор кодека : A_AC3
Продолжительность : 2 ч. 10 м.
Вид битрейта : Постоянный
Битрейт : 384 Кбит/сек
Каналы : 6 каналов
Расположение каналов : Front: L C R, Side: L R, LFE
Частота : 48,0 КГц
Частота кадров : 31,250 кадров/сек (1536 spf)
Метод сжатия : С потерями
Размер потока : 359 Мбайт (2%)
Заголовок : DUB (AC3 5.1 384 kbps)
Язык : Russian
Default : Да
Forced : Да

Аудио #2
Идентификатор : 3
Формат : DTS
Формат/Информация : Digital Theater Systems
Режим : 16
Параметр Endianness формата : Big
Идентификатор кодека : A_DTS
Продолжительность : 2 ч. 10 м.
Вид битрейта : Постоянный
Битрейт : 1509 Кбит/сек
Каналы : 6 каналов
Расположение каналов : Front: L C R, Side: L R, LFE
Частота : 48,0 КГц
Частота кадров : 93,750 кадра/сек (512 spf)
Битовая глубина : 24 бит
Метод сжатия : С потерями
Размер потока : 1,38 Гбайт (9%)
Заголовок : AVO (DTS 5.1 1509 kbps)
Язык : Russian
Default : Нет
Forced : Да

Аудио #3
Идентификатор : 4
Формат : DTS
Формат/Информация : Digital Theater Systems
Режим : 16
Параметр Endianness формата : Big
Идентификатор кодека : A_DTS
Продолжительность : 2 ч. 10 м.
Вид битрейта : Постоянный
Битрейт : 1509 Кбит/сек
Каналы : 6 каналов
Расположение каналов : Front: L C R, Side: L R, LFE
Частота : 48,0 КГц
Частота кадров : 93,750 кадра/сек (512 spf)
Битовая глубина : 24 бит
Метод сжатия : С потерями
Размер потока : 1,38 Гбайт (9%)
Заголовок : DTS 5.1 1509 kbps
Язык : French
Default : Нет
Forced : Нет

Текст #1
Идентификатор : 5
Формат : UTF-8
Идентификатор кодека : S_TEXT/UTF8
Идентификатор кодека/Информация : UTF-8 Plain Text
Продолжительность : 2 ч. 10 м.
Битрейт : 50 бит/сек
Count of elements : 1652
Размер потока : 48,2 Кбайт (0%)
Заголовок : SDH
Язык : French
Default : Нет
Forced : Нет

Текст #2
Идентификатор : 6
Формат : UTF-8
Идентификатор кодека : S_TEXT/UTF8
Идентификатор кодека/Информация : UTF-8 Plain Text
Продолжительность : 2 ч. 1 м.
Битрейт : 45 бит/сек
Count of elements : 1562
Размер потока : 40,4 Кбайт (0%)
Язык : English
Default : Нет
Forced : Нет

Меню
00:00:00.000 : fr:00:00:00.000
00:13:58.250 : fr:00:13:58.250
00:22:22.917 : fr:00:22:22.917
00:31:58.167 : fr:00:31:58.167
00:42:11.667 : fr:00:42:11.667
00:51:55.292 : fr:00:51:55.292
01:01:11.000 : fr:01:01:11.000
01:12:58.125 : fr:01:12:58.125
01:25:19.708 : fr:01:25:19.708
01:36:16.583 : fr:01:36:16.583
01:45:27.417 : fr:01:45:27.417
02:00:35.000 : fr:02:00:35.000


Внимание! AdBlock блокирует показ скриншотов, все вопросы к разработчикам )))
Трекер:  [ 15-Мар-2017 13:00 ]

  

Скачать .torrent

Размер .torrent файла 74 KB


Размер: 14.85 GB
Хэш (hash) релиза: 917e8ff25c60a70cb4e0fd66fa6bcfb7bcce75af
Подписка на обновления:

Торренты, похожие на Она Elle скачать торрент

Форум Название Автор Размер S L Добавлен
Зарубежные фильмы до 2016 ·%· Она / Elle (Пол Верховен / Paul Verhoeven) [2016, Франция, Германия, Бельгия, Триллер, драма, криминал, DVD9] Dub (Лицензия) + Sub Rus + Original Fra Galfimbul 68744110086.4 GB 0 0 1531461677

09:01

13-Июл-18

Зарубежные фильмы 2016-2019 (Новинки зарубежного кино) ·· Она / Elle (Пол Верховен / Paul Verhoeven) [2016, Франция, Германия, Бельгия, триллер, драма, HDRip] DUB (iTunes) Galfimbul 14670315521.37 GB 0 0 1489593757

19:02

15-Мар-17

Зарубежные фильмы 2016-2019 (Новинки зарубежного кино) ·· Она / Elle (Пол Верховен / Paul Verhoeven) [2016, Франция, Германия, Бельгия, триллер, драма, криминал, HDRip] Dub (iTunes) + Original Fre Galfimbul 23242997762.16 GB 0 0 1489593752

19:02

15-Мар-17

Зарубежные фильмы до 2016 ·· Она / Elle (Пол Верховен / Paul Verhoeven) [2016, Франция, Германия, Бельгия, триллер, драма, BDRemux 1080p] DUB (iTunes) + AVO (Карповский) + Original Fre + Sub Fre, Eng Galfimbul 3853129260835.89 GB 0 0 1489576721

14:18

15-Мар-17

Зарубежные фильмы до 2016 ·· Она / Elle (Пол Верховен / Paul Verhoeven) [2016, Франция, Германия, Бельгия, триллер, драма, BDRip 720p] DUB (iTunes) + AVO (Карповский) + Original Fre + Sub Fre, Eng Galfimbul 73782648066.87 GB 0 0 1489574796

13:46

15-Мар-17

Зарубежные фильмы 2016-2019 (Новинки зарубежного кино) ·· Она / Elle (Пол Верховен) [2016, Триллер, драма, BDRip 1080p] iTunes Galfimbul 1117050437910.4 GB 0 0 1489473700

09:41

14-Мар-17

Зарубежные фильмы 2016-2019 (Новинки зарубежного кино) ·· Она / Elle (Пол Верховен) [2016, Триллер, драма, BDRip 720p] iTunes Galfimbul 67503432716.29 GB 0 0 1489473695

09:41

14-Мар-17

Зарубежные фильмы 2016-2019 (Новинки зарубежного кино) ·· Она / Elle (Пол Верховен) [2016, Триллер, драма, BDRip 1080р] Galfimbul 1557091994914.5 GB 0 0 1485168787

13:53

23-Янв-17

Зарубежные фильмы 2016-2019 (Новинки зарубежного кино) ·· Она / Elle (Пол Верховен) [2016, Триллер, драма, BDRip 720р] Galfimbul 70014922336.52 GB 0 0 1485168777

13:52

23-Янв-17

Зарубежные фильмы 2016-2019 (Новинки зарубежного кино) ·· Она / Elle (Пол Верховен) [2016, Триллер, драма, BDRemux 1080р] Galfimbul 3810771854435.49 GB 1 1 1485168767

13:52

23-Янв-17

Зарубежные фильмы до 2016 ·· Она не пьет, не курит, не клеит парней, но она... болтает! / Elle boit pas, elle fume pas, elle drague pas, mais... elle cause! (Мишель Одияр / Michel Audiard) [1969, Франция, Gaumont International, Комедия, DVDRip] VO (SATKUR) + Original Fre Galfimbul 11717939201.09 GB 0 0 1390409743

19:55

22-Янв-14

Зарубежные фильмы до 2016 ·· Она не только болтает, она всех мочит / Она больше не говорит, она стреляет / Болтает, крадет... иногда убивает / Elle cause plus, elle flingue (Мишель Одиар / Michel Audiard) [1972, Италия, Франция, комедия, DVDRip] DVO Galfimbul 778940416743 MB 0 0 1380660429

23:47

1-Окт-13

Зарубежные фильмы до 2016 ·· Я, ты, он, она / Je, tu, il, elle (Шанталь Акерман / Chantal Akerman)[1974, Франция, Бельгия, Драма, DVD5 (Custom)] Sub Eng, Rus (badsteel) + Orig Fra / Criterion.Eclipse Series #19 Galfimbul 43628195844.06 GB 0 0 1509523579

11:06

1-Ноя-17

Зарубежные фильмы до 2016 ·· Отель Монтерей / Я, ты, она, он / Hotel Monterey / Je tu il elle (Шанталь Акерман / Chantal Akerman) [1972 , 1975 гг., артхаус, DVD9] original + sub Galfimbul 75469701127.03 GB 0 0 1424160754

11:12

17-Фев-15

Зарубежные фильмы до 2016 ·· Она провела много времени в свете софитов... / Elle a passé tant d'heures sous les sunlights... (Филипп Гаррель / Philippe Garrel) [1985, Франция, артхаус, DVD9 (custom)] original + sub Galfimbul 80109240327.46 GB 0 0 1506085984

16:13

22-Сен-17

Зарубежные фильмы 2016-2019 (Новинки зарубежного кино) ·· Она его обожает / Elle l'adore (Жанна Эрри) [2014, Триллер, драма, комедия, BDRip 1080p] Galfimbul 85126082167.93 GB 0 0 1490517976

11:46

26-Мар-17

Зарубежные фильмы до 2016 ·· Они не забывают никогда / Elles N'Oublient Jamais / Love in the Strangest Way (Кристофер Франке / Christopher Franke) [1994, Франция, Триллер, детектив, DVD5 (Custom)] DVO + Sub Eng + Original Fre Galfimbul 35113738243.27 GB 0 0 1488884654

14:04

7-Мар-17

Зарубежные фильмы 2016-2019 (Новинки зарубежного кино) ·· Она его обожает / Elle l'adore (Жанна Эрри) [2014, Комедия, BDRip] Galfimbul 15663206401.46 GB 0 0 1485163258

12:20

23-Янв-17

Зарубежные фильмы 2016-2019 (Новинки зарубежного кино) ·· Она его обожает / Elle l'adore (Жанна Эрри) [2014, Комедия, BDRip] Galfimbul 23430942722.18 GB 0 0 1485163255

12:20

23-Янв-17

Еще никто не оставлял запись к записи скачать торрент Она Elle . Будь первым!

!Обратная связь