Скачать через торрент Лимбо Limbo Фильм бесплатно в хорошем качестве torrent

Скачивайте на UnionPeer.org фильмы через торрент без регистрации. Новинки кино в хорошем качестве через торрент. На UnionPeer.org можно скачать через торрент фильмы 2014 и 2015 годов. Самые новые фильмы.

Скачать торрент Лимбо Limbo бесплатно через .torrent фильм мультфильм сериал

Статистика раздачи
Размер:  6.95 GB   |    Зарегистрирован:  6 лет 11 месяцев   |    .torrent скачан:  56 раз   |   
Раздают:  1  
 

Скачать Лимбо / Limbo (Иван Ноэль) [2014, ужасы, мистика, комедия, BDRip 1080p] через torrent

 
 
Автор Сообщение

Galfimbul

avatar Galfimbul


Лимбо /Limbo / Children of the night

Год выхода: 2014
Жанр: ужасы, мистика, комедия
Режиссер: Иван Ноэль
В ролях: Анна-Мария Джунта, Тото Муньос, Сабрина Рамос, Лауро Верон, Ивансер Целес, Романо Робауди, Макси Лепоре, Хена Фореси

О фильме:
Черная вампирская комедия. "Лимбо" - уединенная колония, в которой живут дети-вампиры в возрасте от 4 до 120 лет, которые стали жертвами бессовестных взрослых вампиров. О них заботится глубоко религиозная пожилая медсестра, которая всю свою жизнь посвятила поиску "потерянных душ", чтобы вырастить их в своей колонии для воплощения божественной воли по... созданию новой расы людей путем "естественного клонирования" (которое подразумевает, что люди превратятся в вампиров после того, как будут укушены ее подопечными). Чтобы помочь в осуществлении этих планов и защитить детей от "людей в черном", возглавляемых сыном писателя Брэма Стокера, которому противостоит юный внук графа Дракулы, она приглашает в колонию известную журналистку Алисию Делаторре...

</a> </a>

Производство: Аргентина / Noel Films
Продолжительность: 01:40:09
Перевод: любительский (одноголосый закадровый) [Вячеслав Прошин], любительский (одноголосый закадровый) [Павел Морозов aka PashaUp], любительский (одноголосый закадровый) [Дмитрий Грачев aka ХиХидок]

Файл
Качество: BDRip 1080p
Формат: MKV
Видео: MPEG-4 AVC, 1920x1080 (16:9), 29.970 fps, 9181 kbps, 0.148 bit/pixel
Аудио #1: русский, AC3 2.0, 48 kHz, 192 kbps | Прошин
Аудио #2: русский, AC3 2.0, 48 kHz, 192 kbps | PashaUp
Аудио #3: русский, AC3 2.0, 48 kHz, 192 kbps | ХиХидок
Аудио #4: испанский, AC3 2.0, 48 kHz, 192 kbps
Субтитры: русские [Алексей Крылов aka prostotak], английские, французские вшитые отключаемые
Формат : Matroska
Версия формата : Version 4 / Version 2
Размер файла : 6,95 Гбайт
Продолжительность : 1 ч. 40 м.
Общий поток : 9936 Кбит/сек
Дата кодирования : UTC 2016-09-30 11:28:52
Программа кодирования : mkvmerge v7.9.0 ('Birds') 64bit
Библиотека кодирования : libebml v1.3.1 + libmatroska v1.4.2
DURATION : 01:36:04.659000000
NUMBER_OF_FRAMES : 732
NUMBER_OF_BYTES : 20647
_STATISTICS_WRITING_APP : mkvmerge v8.4.0 ('A better way to fly') 32bit
_STATISTICS_WRITING_DATE_UTC : 2015-10-21 12:13:14
_STATISTICS_TAGS : BPS DURATION NUMBER_OF_FRAMES NUMBER_OF_BYTES

Видео
Идентификатор : 1
Формат : AVC
Формат/Информация : Advanced Video Codec
Профиль формата : [email protected]
Параметр CABAC формата : Да
Параметр ReFrames формата : 4 кадра
Идентификатор кодека : V_MPEG4/ISO/AVC
Продолжительность : 1 ч. 40 м.
Битрейт : 9181 Кбит/сек
Ширина : 1920 пикселей
Высота : 1080 пикселей
Соотношение сторон : 16:9
Режим частоты кадров : Постоянный
Частота кадров : 29,970 кадров/сек
Цветовое пространство : YUV
Субдискретизация насыщенности : 4:2:0
Битовая глубина : 8 бит
Тип развёртки : Прогрессивная
Бит/(Пиксели*Кадры) : 0.148
Размер потока : 6,28 Гбайт (90%)
Библиотека кодирования : x264 core 148 r2638 7599210
Настройки программы : cabac=1 / ref=4 / deblock=1:0:0 / analyse=0x3:0x113 / me=umh / subme=7 / psy=1 / psy_rd=1.00:0.00 / mixed_ref=1 / me_range=16 / chroma_me=1 / trellis=1 / 8x8dct=1 / cqm=0 / deadzone=21,11 / fast_pskip=1 / chroma_qp_offset=-2 / threads=12 / lookahead_threads=2 / sliced_threads=0 / nr=0 / decimate=1 / interlaced=0 / bluray_compat=0 / constrained_intra=0 / bframes=3 / b_pyramid=2 / b_adapt=1 / b_bias=0 / direct=1 / weightb=0 / open_gop=0 / weightp=2 / keyint=300 / keyint_min=29 / scenecut=40 / intra_refresh=0 / rc_lookahead=40 / rc=2pass / mbtree=0 / bitrate=9181 / ratetol=1.0 / qcomp=0.60 / qpmin=10 / qpmax=51 / qpstep=4 / cplxblur=20.0 / qblur=0.5 / vbv_maxrate=62500 / vbv_bufsize=78125 / nal_hrd=none / filler=0 / ip_ratio=1.40 / pb_ratio=1.30 / aq=1:1.00
Язык : English
Default : Да
Forced : Нет
DURATION : 01:40:09.436000000
NUMBER_OF_FRAMES : 180103
NUMBER_OF_BYTES : 6884420597
_STATISTICS_WRITING_APP : mkvmerge v8.4.0 ('A better way to fly') 32bit
_STATISTICS_WRITING_DATE_UTC : 2015-10-21 12:13:14
_STATISTICS_TAGS : BPS DURATION NUMBER_OF_FRAMES NUMBER_OF_BYTES

Аудио #1
Идентификатор : 2
Формат : AC-3
Формат/Информация : Audio Coding 3
Расширение режима : CM (complete main)
Параметр Endianness формата : Big
Идентификатор кодека : A_AC3
Продолжительность : 1 ч. 40 м.
Вид битрейта : Постоянный
Битрейт : 192 Кбит/сек
Каналы : 2 канала
Расположение каналов : Front: L R
Частота : 48,0 КГц
Метод сжатия : С потерями
Размер потока : 138 Мбайт (2%)
Заголовок : Вячеслав Прошин
Язык : Russian
Default : Да
Forced : Нет

Аудио #2
Идентификатор : 3
Формат : AC-3
Формат/Информация : Audio Coding 3
Расширение режима : CM (complete main)
Параметр Endianness формата : Big
Идентификатор кодека : A_AC3
Продолжительность : 1 ч. 40 м.
Вид битрейта : Постоянный
Битрейт : 192 Кбит/сек
Каналы : 2 канала
Расположение каналов : Front: L R
Частота : 48,0 КГц
Метод сжатия : С потерями
Размер потока : 138 Мбайт (2%)
Заголовок : Павел Морозов
Язык : Russian
Default : Нет
Forced : Нет

Аудио #3
Идентификатор : 4
Формат : AC-3
Формат/Информация : Audio Coding 3
Расширение режима : CM (complete main)
Параметр Endianness формата : Big
Идентификатор кодека : A_AC3
Продолжительность : 1 ч. 40 м.
Вид битрейта : Постоянный
Битрейт : 192 Кбит/сек
Каналы : 2 канала
Расположение каналов : Front: L R
Частота : 48,0 КГц
Метод сжатия : С потерями
Размер потока : 138 Мбайт (2%)
Заголовок : Дмитрий Грачев
Язык : Russian
Default : Нет
Forced : Нет

Аудио #4
Идентификатор : 5
Формат : AC-3
Формат/Информация : Audio Coding 3
Расширение режима : CM (complete main)
Параметр Endianness формата : Big
Идентификатор кодека : A_AC3
Продолжительность : 1 ч. 40 м.
Вид битрейта : Постоянный
Битрейт : 192 Кбит/сек
Каналы : 2 канала
Расположение каналов : Front: L R
Частота : 48,0 КГц
Метод сжатия : С потерями
Размер потока : 138 Мбайт (2%)
Заголовок : Original
Язык : Spanish
Default : Нет
Forced : Нет

Текст #1
Идентификатор : 6
Формат : UTF-8
Идентификатор кодека : S_TEXT/UTF8
Идентификатор кодека/Информация : UTF-8 Plain Text
Заголовок : Алексей Крылов
Язык : Russian
Default : Да
Forced : Нет

Текст #2
Идентификатор : 7
Формат : UTF-8
Идентификатор кодека : S_TEXT/UTF8
Идентификатор кодека/Информация : UTF-8 Plain Text
Язык : English
Default : Нет
Forced : Нет

Текст #3
Идентификатор : 8
Формат : UTF-8
Идентификатор кодека : S_TEXT/UTF8
Идентификатор кодека/Информация : UTF-8 Plain Text
Язык : French
Default : Нет
Forced : Нет


Внимание! AdBlock блокирует показ скриншотов, все вопросы к разработчикам )))
Трекер:  [ 18-Мар-2017 13:30 ]

  

Скачать .torrent

Размер .torrent файла 18 KB


Размер: 6.95 GB
Хэш (hash) релиза: 569061f5008ab54567ec1df42f431c958d735be8
Подписка на обновления:

Еще никто не оставлял запись к записи скачать торрент Лимбо Limbo . Будь первым!

!Обратная связь