Скачать через торрент Новогодний корпоратив Office Christmas Party Фильм бесплатно в хорошем качестве torrent

Скачивайте на UnionPeer.org фильмы через торрент без регистрации. Новинки кино в хорошем качестве через торрент. На UnionPeer.org можно скачать через торрент фильмы 2014 и 2015 годов. Самые новые фильмы.

Скачать торрент Новогодний корпоратив Office Christmas Party бесплатно через .torrent фильм мультфильм сериал

Статистика раздачи
Размер:  2.13 GB   |    Зарегистрирован:  7 лет 2 месяца   |    .torrent скачан:  365 раз   |   
Раздают:  1  
 

Скачать Новогодний корпоратив / Office Christmas Party (Джош Гордон / Josh Gordon, Уилл Спек / Will Speck) [2016, США, комедия, BDRip-AVC] Dub + Original + Sub (rus, eng) через torrent

 
 
Автор Сообщение

Galfimbul

avatar Galfimbul


Новогодний корпоратив / Office Christmas Party«Party like your job depends on it»
Страна: США
Жанр: комедия
Год выпуска: 2016
Продолжительность: 01:45:08

Перевод: Профессиональный (дублированный) (iTunes)
Оригинальная аудиодорожка: английский
Субтитры: русские (форс., полные) английские (полные, SDH)
Навигация по главам: есть

Режиссер: Джош Гордон / Josh Gordon, Уилл Спек / Will Speck

В ролях: Джейсон Бейтман (Josh Parker), Оливия Манн (Tracey Hughes), ТиДжей Миллер (Clay Vanstone), Дженнифер Энистон (Carol Vanstone), Кейт МакКиннон (Mary), Кортни Б. Вэнс (Walter Davis), Джиллиан Белл (Trina), Роб Кордри (Jeremy), Ванесса Байер (Allison), Рэндолл Парк (Fred), Сэм Ричардсон (Joel), Каран Сони (Nate)

Описание: Когда сестра героя, вице-президент компании, угрожает брату закрыть его филиал, он устраивает грандиозную рождественскую вечеринку, чтобы заполучить большого клиента и спасти фирму. Однако праздник выходит из-под контроля..

Качество: BDRip-AVC (исходник - Office.Christmas.Party.2016.REMUX.1080p.BluRay.AVC.DTS-HD.MA.5.1-iFT)
Формат видео: MKV

Видео: x264, 1152x482 (2.40:1) 24 fps, ~2015 kbps, 0.151 bit/pixel
Аудио 1: 48 kHz, AC3 Dolby Digital, 3/2 (L,C,R,l,r) + LFE ch, ~384kbps [русский]
Аудио 2: 48 kHz, AC3 Dolby Digital, 3/2 (L,C,R,l,r) + LFE ch, ~448 kbps [английский]
Формат субтитров: softsub (SRT)
Format : Matroska
Format version : Version 4 / Version 2
File size : 2.13 GiB
Duration : 1h 45 min
Overall bit rate : 2 905 kb/s
Movie name : Новогодний корпоратив / Office Christmas Party (2016) :: AFM ::
Encoded date : UTC 2017-03-20 21:25:07
Writing application : mkvmerge v8.3.0 ('Over the Horizon') 32bit
Writing library : libebml v1.3.1 + libmatroska v1.4.2

Video
ID : 1
Format : AVC
Format/Info : Advanced Video Codec
Format profile : [email protected]
Format settings, CABAC : Yes
Format settings, ReFrames : 9 frames
Codec ID : V_MPEG4/ISO/AVC
Duration : 1h 45 min
Bit rate : 2 015 kb/s
Width : 1 152 pixels
Height : 482 pixels
Display aspect ratio : 2.40:1
Frame rate mode : Constant
Frame rate : 24.000 FPS
Color space : YUV
Chroma subsampling : 4:2:0
Bit depth : 8 bits
Scan type : Progressive
Bits/(Pixel*Frame) : 0.151
Stream size : 1.48 GiB (69%)
Title : BDRip by AFM
Writing library : x264 core 150 r2773+45 df9a66c 7mod [8-bit@all X86_64]
Encoding settings : cabac=1 / ref=9 / deblock=1:-3:-2 / analyse=0x3:0x113 / me=umh / subme=10 / psy=1 / fade_compensate=0.00 / psy_rd=1.00:0.00 / mixed_ref=1 / me_range=32 / chroma_me=0 / trellis=2 / 8x8dct=1 / cqm=0 / deadzone=21,11 / fast_pskip=0 / chroma_qp_offset=-2 / threads=6 / lookahead_threads=1 / sliced_threads=0 / nr=0 / decimate=1 / interlaced=0 / bluray_compat=0 / constrained_intra=0 / fgo=0 / bframes=13 / b_pyramid=2 / b_adapt=2 / b_bias=0 / direct=1 / weightb=1 / open_gop=0 / weightp=2 / keyint=240 / keyint_min=23 / scenecut=40 / intra_refresh=0 / rc_lookahead=60 / rc=crf / mbtree=0 / crf=18.0000 / qcomp=0.65 / qpmin=0:0:0 / qpmax=69:69:69 / qpstep=4 / vbv_maxrate=50000 / vbv_bufsize=62500 / crf_max=0.0 / nal_hrd=none / filler=0 / ip_ratio=1.35 / pb_ratio=1.25 / aq=4:0.85 / aq-sensitivity=10.00 / aq-factor=1.00:1.00:1.00 / aq2=0 / aq3=0
Language : English
Default : Yes
Forced : No

Audio #1
ID : 2
Format : AC-3
Format/Info : Audio Coding 3
Mode extension : CM (complete main)
Format settings, Endianness : Big
Codec ID : A_AC3
Duration : 1h 45 min
Bit rate mode : Constant
Bit rate : 384 kb/s
Channel(s) : 6 channels
Channel positions : Front: L C R, Side: L R, LFE
Sampling rate : 48.0 kHz
Frame rate : 31.250 FPS (1536 spf)
Compression mode : Lossy
Stream size : 289 MiB (13%)
Title : Dub, AC3 5.1 ~384 kbps
Language : Russian
Default : Yes
Forced : No

Audio #2
ID : 3
Format : AC-3
Format/Info : Audio Coding 3
Mode extension : CM (complete main)
Format settings, Endianness : Big
Codec ID : A_AC3
Duration : 1h 45 min
Bit rate mode : Constant
Bit rate : 448 kb/s
Channel(s) : 6 channels
Channel positions : Front: L C R, Side: L R, LFE
Sampling rate : 48.0 kHz
Frame rate : 31.250 FPS (1536 spf)
Compression mode : Lossy
Stream size : 337 MiB (15%)
Title : Original, AC3 5.1 ~448 kbps
Language : English
Default : No
Forced : No

Text #1
ID : 4
Format : UTF-8
Codec ID : S_TEXT/UTF8
Codec ID/Info : UTF-8 Plain Text
Title : forced
Language : Russian
Default : Yes
Forced : No

Text #2
ID : 5
Format : UTF-8
Codec ID : S_TEXT/UTF8
Codec ID/Info : UTF-8 Plain Text
Language : Russian
Default : No
Forced : No

Text #3
ID : 6
Format : UTF-8
Codec ID : S_TEXT/UTF8
Codec ID/Info : UTF-8 Plain Text
Language : English
Default : No
Forced : No

Text #4
ID : 7
Format : UTF-8
Codec ID : S_TEXT/UTF8
Codec ID/Info : UTF-8 Plain Text
Title : SDH
Language : English
Default : No
Forced : No

Menu
00:00:00.000 : en:00:00:00.000
00:08:02.708 : en:00:08:02.708
00:12:26.333 : en:00:12:26.333
00:22:25.250 : en:00:22:25.250
00:28:45.625 : en:00:28:45.625
00:32:00.792 : en:00:32:00.792
00:39:18.625 : en:00:39:18.625
00:48:50.625 : en:00:48:50.625
00:54:02.417 : en:00:54:02.417
00:59:19.333 : en:00:59:19.333
01:04:26.292 : en:01:04:26.292
01:10:02.375 : en:01:10:02.375
01:15:32.000 : en:01:15:32.000
01:20:58.167 : en:01:20:58.167
01:26:23.833 : en:01:26:23.833
01:34:44.500 : en:01:34:44.500
01:39:13.625 : en:01:39:13.625
<div class="sp-wrap">
<div class="sp-head folded">x264</div>
<div class="sp-body">x264 [info]: frame I:1560 Avg QP:15.82 size: 55589
x264 [info]: frame P:33005 Avg QP:17.71 size: 21997
x264 [info]: frame B:116829 Avg QP:20.60 size: 7015
x264 [info]: consecutive B-frames: 1.9% 2.1% 9.3% 24.4% 20.6% 33.0% 4.2% 1.1% 1.0% 0.4% 0.3% 1.1% 0.2% 0.5%
x264 [info]: mb I I16..4: 8.0% 69.0% 23.0%
x264 [info]: mb P I16..4: 2.3% 13.9% 3.0% P16..4: 37.3% 23.4% 11.3% 0.0% 0.0% skip: 8.8%
x264 [info]: mb B I16..4: 0.2% 1.2% 0.3% B16..8: 36.9% 10.3% 2.5% direct: 5.1% skip:43.4% L0:41.6% L1:44.0% BI:14.5%
x264 [info]: 8x8 transform intra:70.7% inter:67.9%
x264 [info]: coded y,uvDC,uvAC intra: 73.1% 75.6% 51.9% inter: 17.6% 16.3% 2.9%
x264 [info]: i16 v,h,dc,p: 30% 18% 9% 43%
x264 [info]: i8 v,h,dc,ddl,ddr,vr,hd,vl,hu: 18% 9% 7% 8% 11% 13% 11% 11% 11%
x264 [info]: i4 v,h,dc,ddl,ddr,vr,hd,vl,hu: 23% 7% 5% 9% 13% 13% 11% 10% 10%
x264 [info]: i8c dc,h,v,p: 38% 24% 24% 15%
x264 [info]: Weighted P-Frames: Y:96.8% UV:3.9%
x264 [info]: ref P L0: 52.9% 10.7% 15.4% 6.0% 4.6% 3.5% 3.1% 1.8% 1.9% 0.2% 0.0%
x264 [info]: ref B L0: 79.7% 9.1% 4.8% 2.3% 1.7% 1.3% 0.9% 0.3%
x264 [info]: ref B L1: 95.0% 5.0%
x264 [info]: kb/s:2070.06
</div>
</div>
<div class="sp-wrap">
<div class="sp-head folded">с названием</div>
<div class="sp-body">
</div>
</div>

Внимание! AdBlock блокирует показ скриншотов, все вопросы к разработчикам )))

Трекер:  [ 21-Мар-2017 07:30 ]

  

Скачать .torrent

Размер .torrent файла 11 KB


Размер: 2.13 GB
Хэш (hash) релиза: 00e7d8ae368477ff285761f0f9d15dacf9f16aae
Подписка на обновления:

Торренты, похожие на Новогодний корпоратив Office Christmas Party скачать торрент

Форум Название Автор Размер S L Добавлен
Зарубежные фильмы 2016-2019 (Новинки зарубежного кино) ·· Новогодний корпоратив / Office Christmas Party (Джош Гордон, Уилл Спек / Josh Gordon, Will Speck) [2016, США, комедия, HDRip] [Theatrical Cut] Dub Galfimbul 782569472746 MB 0 0 1501950615

19:30

5-Авг-17

Трейлеры и дополнительные материалы ·· Новогодний Корпоратив / Office Christmas Party (Джош Гордон / Josh Gordon, Уилл Спек / Will Speck) [2016, Комедия, BDRip 720p] дополнительные материалы Galfimbul 998215529952 MB 0 0 1495370399

15:39

21-Май-17

Зарубежные фильмы до 2016 ·· Новогодний корпоратив / Office Christmas Party (Джош Гордон / Josh Gordon) [2016, США, Комедия, DVD9] Dub + Sub Rus + Original Eng Galfimbul 66642463976.21 GB 0 0 1493108690

11:24

25-Апр-17

Зарубежные фильмы 2016-2019 (Новинки зарубежного кино) ·· Новогодний корпоратив / Office Christmas Party (2016) BDRip-AVC от ExKinoRay | Лицензия Galfimbul 19392851371.81 GB 0 0 1491255857

00:44

4-Апр-17

Зарубежные фильмы до 2016 ·· Новогодний корпоратив / Office Christmas Party (Джош Гордон, Уилл Спек / Josh Gordon, Will Speck) [2016, США, комедия, Blu-ray disc 1080p] [Theatrical Cut] [EUR] Dub + Sub Rus, Eng + Original Eng Galfimbul 4124294902638.41 GB 0 0 1491238430

19:53

3-Апр-17

Зарубежные фильмы 2016-2019 (Новинки зарубежного кино) ·· Новогодний корпоратив / Office Christmas Party (Джош Гордон / Josh Gordon, Уилл Спек / Will Speck) [2016, США, комедия, BDRip-AVC] Dub + Sub (rus) Galfimbul 15641391611.46 GB 0 0 1490074162

08:29

21-Мар-17

Зарубежные фильмы 2016-2019 (Новинки зарубежного кино) ·· Новогодний корпоратив / Office Christmas Party (Джош Гордон / Josh Gordon, Уилл Спек / Will Speck) [2016, США, комедия, BDRip] Dub (iTunes) + Sub Rus Galfimbul 15167045081.41 GB 0 0 1490074151

08:29

21-Мар-17

Зарубежные фильмы 2016-2019 (Новинки зарубежного кино) ·· Новогодний корпоратив / Office Christmas Party (Джош Гордон, Уилл Спек) [2016, комедия, WEB-DLRip 720р] Galfimbul 36369555443.39 GB 0 0 1489400028

13:13

13-Мар-17

Зарубежные фильмы 2016-2019 (Новинки зарубежного кино) ·· Новогодний корпоратив / Office Christmas Party (Джош Гордон, Уилл Спек) [2016, комедия, WEB-DLRip 1080р] Galfimbul 43115331904.02 GB 0 0 1489400022

13:13

13-Мар-17

Зарубежные фильмы 2016-2019 (Новинки зарубежного кино) ·· Новогодний корпоратив / Office Christmas Party (Джош Гордон, Уилл Спек) [2016, комедия, WEB-DLRip] Galfimbul 15648788481.46 GB 0 0 1489354859

00:40

13-Мар-17

Зарубежные фильмы 2016-2019 (Новинки зарубежного кино) ·· Новогодний корпоратив / Office Christmas Party (Джош Гордон, Уилл Спек) [2016, комедия, CAMRip] Galfimbul 14674042881.37 GB 0 0 1481232061

00:21

9-Дек-16

Еще никто не оставлял запись к записи скачать торрент Новогодний корпоратив Office Christmas Party . Будь первым!

!Обратная связь