Скачать через торрент Война Man Down Фильм бесплатно в хорошем качестве torrent

Скачивайте на UnionPeer.org фильмы через торрент без регистрации. Новинки кино в хорошем качестве через торрент. На UnionPeer.org можно скачать через торрент фильмы 2014 и 2015 годов. Самые новые фильмы.

Скачать торрент Война Man Down бесплатно через .torrent фильм мультфильм сериал

Статистика раздачи
Размер:  745 MB   |    Зарегистрирован:  6 лет 11 месяцев   |    .torrent скачан:  53 раза   |   
Раздают:  1  
 

Скачать Война / Man Down (Дито Монтиель / Dito Montiel) [2015, США, триллер, драма, BDRip] Dub (iTunes) через torrent

 
 
Автор Сообщение

Galfimbul

avatar Galfimbul


Война / Man Down

Страна: США
Жанр: триллер, драма
Год выпуска: 2015
Продолжительность: 01:30:28

Перевод: Профессиональный (дублированный) iTunes
Cубтитры: нет
Режиссер: Дито Монтиель / Dito Montiel

В ролях: Шайа ЛаБаф, Джай Кортни, Гари Олдман, Кейт Мара, Тори Киттлз, Клифтон Коллинз мл., Чарли Шотуэлл, Хосе Пабло Кантильо, Джастин Смит, Пол Садо

Описание: События драматического кинофильма начали разворачиваться во времена проведения иракской кампании, непосредственными участниками, которой и стали два американских военнослужащих. Гэбриэл Драммер, вместе со своим боевым товарищем – Дэвином, будучи морскими пехотинцами, были задействованы в самых жестоких сражениях на территории Ирака. На их глазах погибло множество сотоварищей, и это сильно отразилось на психическом состоянии персонажей, коим всё же удалось вернуться домой живыми и невредимыми. Однако они сами не считают, что им так уж сильно и повезло, ибо теперь героям приходиться жить с тяжёлыми воспоминаниями которые парни предпочли бы навсегда забыть, как дурной сон. Правда сделать это попросту невозможно, и они вынуждены с этим смириться, поскольку не имеют альтернативного выбора. То, что с ними произошло нельзя исправить, и можно только попытаться кое как жить с этим дальше, хотя данная задача и кажется обоим невыполнимой....

Сэмпл: http://multi-up.com/1146603

Качество видео: BDRip MAN_DOWN_RMX_BLUEBIRD
Формат видео: AVI

Видео: 704x288 (2.44:1), 23.976 fps, XviD build 73 ~1018 kbps avg, 0.21 bit/pixel
Аудио: 48 kHz, MPEG Layer 3, 2 ch, ~128.00 kbps avg - iTunes
Формат : AVI
Формат/Информация : Audio Video Interleave
Размер файла : 745 Мбайт
Продолжительность : 1 ч. 30 м.
Общий поток : 1152 Кбит/сек

Видео
Идентификатор : 0
Формат : MPEG-4 Visual
Профиль формата : Advanced Simple@L5
Параметр BVOP формата : 1
Параметр QPel формата : Нет
Параметр GMC формата : Без точки перехода
Параметр матрицы формата : Выборочная
Идентификатор кодека : XVID
Идентификатор кодека/Подсказка : XviD
Продолжительность : 1 ч. 30 м.
Битрейт : 1018 Кбит/сек
Ширина : 704 пикселя
Высота : 288 пикселей
Соотношение сторон : 2,40:1
Частота кадров : 23,976 (24000/1001) кадра/сек
Цветовое пространство : YUV
Субдискретизация насыщенности : 4:2:0
Битовая глубина : 8 бит
Тип развёртки : Прогрессивная
Метод сжатия : С потерями
Бит/(Пиксели*Кадры) : 0.209
Размер потока : 659 Мбайт (88%)
Библиотека кодирования : XviD 73

Аудио
Идентификатор : 1
Формат : MPEG Audio
Версия формата : Version 1
Профиль формата : Layer 3
Режим : Joint stereo
Расширение режима : MS Stereo
Идентификатор кодека : 55
Идентификатор кодека/Подсказка : MP3
Продолжительность : 1 ч. 30 м.
Вид битрейта : Постоянный
Битрейт : 128 Кбит/сек
Каналы : 2 канала
Частота : 48,0 КГц
Метод сжатия : С потерями
Размер потока : 82,8 Мбайт (11%)
Выравнивание : Соединение по промежуткам
Продолжительность промежутка : 167 мс. (4,00 видеокадра)
Время предзагрузки промежутка : 216 мс.
Заголовок : iTunes
Библиотека кодирования : LAME3.99r
Настройки программы : -m j -V 4 -q 2 -lowpass 17 -b 128


Внимание! AdBlock блокирует показ скриншотов, все вопросы к разработчикам )))
Трекер:  [ 24-Мар-2017 07:00 ]

  

Скачать .torrent

Размер .torrent файла 15 KB


Размер: 745 MB
Хэш (hash) релиза: 516fd1cc8bdfa2f54776577405b5985526482a91
Подписка на обновления:

Торренты, похожие на Война Man Down скачать торрент

Форум Название Автор Размер S L Добавлен
Зарубежные фильмы до 2016 ·· Война / Man Down (Дито Монтиель / Dito Montiel) [2015, США, триллер, драма, BDRip 720p] Dub (iTunes) + Sub Eng + Original Eng Galfimbul 66122808786.16 GB 0 0 1490380483

21:34

24-Мар-17

Зарубежные фильмы 2016-2019 (Новинки зарубежного кино) ·· Война / Man Down (Дито Монтиель / Dito Montiel) [2016, США, триллер, драма, BDRip-AVC] Dub (iTunes) + Sub Eng + Original Eng Galfimbul 14826086551.38 GB 0 0 1490074173

08:29

21-Мар-17

Зарубежные фильмы 2016-2019 (Новинки зарубежного кино) ·· Война / Man Down (Дито Монтиель) [2016, триллер, драма, BDRip 720p] Galfimbul 41159052443.83 GB 0 0 1487929798

12:49

24-Фев-17

Зарубежные фильмы 2016-2019 (Новинки зарубежного кино) ·· Война / Man Down (Дито Монтиель) [2016, триллер, драма, HDRip] Galfimbul 14677749761.37 GB 0 0 1487928037

12:20

24-Фев-17

Зарубежные фильмы 2016-2019 (Новинки зарубежного кино) ·· Война / Man Down (Дито Монтиель) [2016, триллер, драма, BDRip 1080p] Galfimbul 77945476217.26 GB 0 0 1487928000

12:20

24-Фев-17

Еще никто не оставлял запись к записи скачать торрент Война Man Down . Будь первым!

!Обратная связь