Скачать через торрент Война Man Down Фильм бесплатно в хорошем качестве torrent

Скачивайте на UnionPeer.org фильмы через торрент без регистрации. Новинки кино в хорошем качестве через торрент. На UnionPeer.org можно скачать через торрент фильмы 2014 и 2015 годов. Самые новые фильмы.

Скачать торрент Война Man Down бесплатно через .torrent фильм мультфильм сериал

Статистика раздачи
Размер:  6.16 GB   |    Зарегистрирован:  6 лет 11 месяцев   |    .torrent скачан:  76 раз   |   
Раздают:  1  
 

Скачать Война / Man Down (Дито Монтиель / Dito Montiel) [2015, США, триллер, драма, BDRip 720p] Dub (iTunes) + Sub Eng + Original Eng через torrent

 
 
Автор Сообщение

Galfimbul

avatar Galfimbul


Война / Man Down

Страна: США
Жанр: триллер, драма
Год выпуска: 2015
Продолжительность: 01:30:28

Перевод: Профессиональный (дублированный) iTunes
Cубтитры: английские
Оригинальная аудиодорожка: английский

Режиссер: Дито Монтиель / Dito Montiel

В ролях: Шайа ЛаБаф, Джай Кортни, Гари Олдман, Кейт Мара, Тори Киттлз, Клифтон Коллинз мл., Чарли Шотуэлл, Хосе Пабло Кантильо, Джастин Смит, Пол Садо

Описание: Война ставит человека перед выбором, который навсегда стирает грань между реальностью и иллюзией. Морской пехотинец Гэбриэл Драммер со своим боевым другом Дэвином возвращается домой после кампании в Ираке, которая закончилась для Америки катастрофой. Страна лежит в руинах пост-апокалипсиса. Гэбриэл решает во что бы то ни стало отыскать жену и сына в новом мире, где господствует жестокость и право сильного. Сам того не подозревая, он огнём и мечом прокладывает себе дорогу к дому, где ему суждено понять, что всё далеко не так, как кажется.

<div class="post-box">Скачать сэмпл</div>

Тип релиза: BDRip 720p
Контейнер: MKV

Видео: MPEG-4 AVC, 8526 Кбит/с, 1280x528, 23,976 fps
Аудио: Rus, AC3, 384 kb/s (6 ch), 48 kHz
Аудио 2: Eng, AC3, 192 kb/s (2 ch), 48 kHz
Аудио 3: Eng, AC3, 640 kb/s (6 ch), 48 kHz
Общее
Уникальный идентификатор : 171111267954756091532253827646445835510 (0x80BAD4DBB7846615823326A30F43D4F6)
Полное имя : Man.Down.2016.BDRip.720p.mkv
Формат : Matroska
Версия формата : Version 4 / Version 2
Размер файла : 6,16 Гбайт
Продолжительность : 1 ч. 30 м.
Общий поток : 9745 Кбит/сек
Дата кодирования : UTC 2017-03-20 01:32:45
Программа кодирования : mkvmerge v9.9.0 ('Pick Up') 64bit
Библиотека кодирования : libebml v1.3.4 + libmatroska v1.4.5

Видео
Идентификатор : 1
Формат : AVC
Формат/Информация : Advanced Video Codec
Профиль формата : [email protected]
Параметр CABAC формата : Да
Параметр ReFrames формата : 12 кадров
Идентификатор кодека : V_MPEG4/ISO/AVC
Продолжительность : 1 ч. 30 м.
Битрейт : 8526 Кбит/сек
Ширина : 1280 пикселей
Высота : 528 пикселей
Соотношение сторон : 2,40:1
Режим частоты кадров : Постоянный
Частота кадров : 23,976 (24000/1001) кадра/сек
Цветовое пространство : YUV
Субдискретизация насыщенности : 4:2:0
Битовая глубина : 8 бит
Тип развёртки : Прогрессивная
Бит/(Пиксели*Кадры) : 0.526
Размер потока : 5,39 Гбайт (87%)
Библиотека кодирования : x264 core 148 r2744 b97ae06
Настройки программы : cabac=1 / ref=12 / deblock=1:-3:-3 / analyse=0x3:0x133 / me=umh / subme=10 / psy=1 / psy_rd=1.05:0.00 / mixed_ref=1 / me_range=32 / chroma_me=1 / trellis=2 / 8x8dct=1 / cqm=0 / deadzone=21,11 / fast_pskip=0 / chroma_qp_offset=-2 / threads=6 / lookahead_threads=1 / sliced_threads=0 / nr=0 / decimate=0 / interlaced=0 / bluray_compat=0 / constrained_intra=0 / bframes=11 / b_pyramid=2 / b_adapt=2 / b_bias=0 / direct=3 / weightb=1 / open_gop=0 / weightp=2 / keyint=250 / keyint_min=23 / scenecut=40 / intra_refresh=0 / rc_lookahead=60 / rc=crf / mbtree=0 / crf=16.5 / qcomp=0.60 / qpmin=0 / qpmax=69 / qpstep=4 / vbv_maxrate=62500 / vbv_bufsize=78125 / crf_max=0.0 / nal_hrd=none / filler=0 / ip_ratio=1.27 / pb_ratio=1.15 / aq=3:0.82 / zones=27,3375,crf=12/3901,5052,crf=12/8606,8733,crf=12/22281,22656,crf=12/22908,22964,crf=12/23022,23122,crf=12/23306,23370,crf=12/23459,23651,crf=12/23736,23866,crf=12/23999,24034,crf=12/24146,24243,crf=12/24345,24403,crf=12/26413,26912,crf=12/32717,33356,crf=12/33431,33762,crf=12/42863,42949,crf=12/44535,44680,crf=12/57580,57803,crf=12/57998,58131,crf=12/58488,58871,crf=12/59336,59512,crf=12/68851,69115,crf=12/83867,83985,crf=12/84208,84286,crf=12/89097,90064,crf=12/103676,103888,crf=12/104270,104428,crf=12/106111,106266,crf=12/109806,109897,crf=12/110100,110162,crf=12/122049,122111,crf=12/122386,123515,crf=12
Язык : English
Default : Да
Forced : Нет

Аудио #1
Идентификатор : 2
Формат : AC-3
Формат/Информация : Audio Coding 3
Расширение режима : CM (complete main)
Параметр Endianness формата : Big
Идентификатор кодека : A_AC3
Продолжительность : 1 ч. 30 м.
Вид битрейта : Постоянный
Битрейт : 384 Кбит/сек
Каналы : 6 каналов
Расположение каналов : Front: L C R, Side: L R, LFE
Частота : 48,0 КГц
Частота кадров : 31,250 кадров/сек (1536 spf)
Метод сжатия : С потерями
Размер потока : 248 Мбайт (4%)
Заголовок : iTunes
Язык : Russian
Default : Да
Forced : Нет

Аудио #2
Идентификатор : 3
Формат : AC-3
Формат/Информация : Audio Coding 3
Расширение режима : CM (complete main)
Параметр Endianness формата : Big
Идентификатор кодека : A_AC3
Продолжительность : 1 ч. 30 м.
Вид битрейта : Постоянный
Битрейт : 640 Кбит/сек
Каналы : 6 каналов
Расположение каналов : Front: L C R, Side: L R, LFE
Частота : 48,0 КГц
Частота кадров : 31,250 кадров/сек (1536 spf)
Метод сжатия : С потерями
Размер потока : 414 Мбайт (7%)
Язык : English
Default : Нет
Forced : Нет

Аудио #3
Идентификатор : 4
Формат : AC-3
Формат/Информация : Audio Coding 3
Расширение режима : CM (complete main)
Параметр Endianness формата : Big
Идентификатор кодека : A_AC3
Продолжительность : 1 ч. 30 м.
Вид битрейта : Постоянный
Битрейт : 192 Кбит/сек
Каналы : 2 канала
Расположение каналов : Front: L R
Частота : 48,0 КГц
Частота кадров : 31,250 кадров/сек (1536 spf)
Метод сжатия : С потерями
Размер потока : 124 Мбайт (2%)
Заголовок : Commentary with Director Dito Montiel and Military Advisor Sergeant Nick Jones Jr.
Язык : English
Default : Нет
Forced : Нет

Текст #1
Идентификатор : 5
Формат : UTF-8
Идентификатор кодека : S_TEXT/UTF8
Идентификатор кодека/Информация : UTF-8 Plain Text
Продолжительность : 1 ч. 23 м.
Битрейт : 61 бит/сек
Count of elements : 1222
Размер потока : 37,4 Кбайт (0%)
Язык : English
Default : Нет
Forced : Нет

Текст #2
Идентификатор : 6
Формат : UTF-8
Идентификатор кодека : S_TEXT/UTF8
Идентификатор кодека/Информация : UTF-8 Plain Text
Продолжительность : 1 ч. 24 м.
Битрейт : 64 бит/сек
Count of elements : 1346
Размер потока : 40,1 Кбайт (0%)
Заголовок : SDH
Язык : English
Default : Нет
Forced : Нет

Меню
00:00:00.000 : en:Chapter 1
00:06:06.825 : en:Chapter 2
00:14:00.298 : en:Chapter 3
00:18:42.455 : en:Chapter 4
00:23:51.638 : en:Chapter 5
00:29:41.780 : en:Chapter 6
00:36:41.074 : en:Chapter 7
00:42:24.709 : en:Chapter 8
00:47:42.568 : en:Chapter 9
00:51:38.053 : en:Chapter 10
00:55:29.284 : en:Chapter 11
01:00:19.574 : en:Chapter 12
01:04:54.015 : en:Chapter 13
01:10:14.126 : en:Chapter 14
01:14:31.592 : en:Chapter 15
01:21:13.118 : en:Chapter 16


Внимание! AdBlock блокирует показ скриншотов, все вопросы к разработчикам )))
Трекер:  [ 24-Мар-2017 20:30 ]

  

Скачать .torrent

Размер .torrent файла 16 KB


Размер: 6.16 GB
Хэш (hash) релиза: c70b4d7f3de2ea769ca76df48e75ee3bd61f7fcd
Подписка на обновления:

Еще никто не оставлял запись к записи скачать торрент Война Man Down . Будь первым!

!Обратная связь