Скачать через торрент Кредо убийцы Assassins Creed Фильм бесплатно в хорошем качестве torrent

Скачивайте на UnionPeer.org фильмы через торрент без регистрации. Новинки кино в хорошем качестве через торрент. На UnionPeer.org можно скачать через торрент фильмы 2014 и 2015 годов. Самые новые фильмы.

Скачать торрент Кредо убийцы Assassins Creed бесплатно через .torrent фильм мультфильм сериал

Статистика раздачи
Размер:  6.81 GB   |    Зарегистрирован:  7 лет 2 месяца   |    .torrent скачан:  179 раз   |   
Раздают:  1  
   
 
Автор Сообщение

Galfimbul

avatar Galfimbul


Кредо убийцы / Assassin's Creed

Страна: Великобритания, Франция, Гонконг, США, Тайвань, Мальта, Канада
Студия: Alpha Pictures, CatchPlay, Ubisoft, Ubisoft Motion Pictures
Жанр: фантастика, фэнтези, боевик, приключения
Год выпуска: 2016
Продолжительность: 01:55:31

Перевод: Профессиональный (дублированный) Blu-Ray EUR
Cубтитры: Русские, Украинские, Английские
Оригинальная аудиодорожка: английский

Режиссер: Джастин Курзель / Justin Kurzel

В ролях: Майкл Фассбендер, Марион Котийяр, Джереми Айронс, Брендан Глисон, Шарлотта Рэмплинг, Майкл Кеннет Уильямс, Дени Меноше, Ариана Лабед, Халид Абдалла, Эсси Дэвис

Описание: Благодаря революционным технологиям, позволяющим вызвать в памяти воспоминания прежних поколений, Каллум Линч проживает приключения своего предка Агилара в Испании 15-го века. Каллум узнает, что является потомком членов загадочного тайного общества ассасинов. Накопив невероятные знания и навыки, он вступает в противостояние с могущественной и жестокой организацией тамплиеров в наши дни.

<div class="post-box">Скачать сэмпл</div>

Тип релиза: BDRip 720p
Контейнер: MKV

Видео: MPEG-4 AVC, 5709 Кбит/с, 1280x536, 23,976 fps
Aудио 1: Russian: 48 kHz, DTS, 3/2 (L,C,R,l,r) + LFE ch, ~768.00 kbps avg |Дубляж, Blu-ray EUR|
Aудио 2: Ukrainian: 48 kHz, AC3, 3/2 (L,C,R,l,r) + LFE ch, ~448.00 kbps avg |Дубляж, Blu-ray EUR|
Aудио 3: English: 48 kHz, DTS, 3/2 (L,C,R,l,r) + LFE ch, ~1536.00 kbps avg
Общее
Уникальный идентификатор : 187644852453050560690719184355907987773 (0x8D2B1582A8A8DC4A90F89711A171E93D)
Полное имя : Assassins.Creed.2016.BDRip.720p.mkv
Формат : Matroska
Версия формата : Version 4 / Version 2
Размер файла : 6,81 Гбайт
Продолжительность : 1 ч. 55 м.
Общий поток : 8438 Кбит/сек
Дата кодирования : UTC 2017-03-16 09:55:01
Программа кодирования : mkvmerge v9.9.0 ('Pick Up') 64bit
Библиотека кодирования : libebml v1.3.4 + libmatroska v1.4.5

Видео
Идентификатор : 1
Формат : AVC
Формат/Информация : Advanced Video Codec
Профиль формата : [email protected]
Параметр CABAC формата : Да
Параметр ReFrames формата : 12 кадров
Идентификатор кодека : V_MPEG4/ISO/AVC
Продолжительность : 1 ч. 55 м.
Битрейт : 5709 Кбит/сек
Ширина : 1280 пикселей
Высота : 536 пикселей
Соотношение сторон : 2,40:1
Режим частоты кадров : Постоянный
Частота кадров : 23,976 (24000/1001) кадра/сек
Цветовое пространство : YUV
Субдискретизация насыщенности : 4:2:0
Битовая глубина : 8 бит
Тип развёртки : Прогрессивная
Бит/(Пиксели*Кадры) : 0.347
Размер потока : 4,61 Гбайт (68%)
Библиотека кодирования : x264 core 148 r2744 b97ae06
Настройки программы : cabac=1 / ref=12 / deblock=1:-3:-3 / analyse=0x3:0x133 / me=umh / subme=11 / psy=1 / psy_rd=1.00:0.00 / mixed_ref=1 / me_range=48 / chroma_me=1 / trellis=2 / 8x8dct=1 / cqm=0 / deadzone=21,11 / fast_pskip=0 / chroma_qp_offset=-2 / threads=17 / lookahead_threads=2 / sliced_threads=0 / nr=0 / decimate=1 / interlaced=0 / bluray_compat=0 / constrained_intra=0 / bframes=7 / b_pyramid=2 / b_adapt=2 / b_bias=0 / direct=1 / weightb=1 / open_gop=0 / weightp=2 / keyint=240 / keyint_min=23 / scenecut=40 / intra_refresh=0 / rc_lookahead=60 / rc=crf / mbtree=0 / crf=15.3 / qcomp=0.60 / qpmin=0 / qpmax=69 / qpstep=4 / vbv_maxrate=50000 / vbv_bufsize=62500 / crf_max=0.0 / nal_hrd=none / filler=0 / ip_ratio=1.35 / pb_ratio=1.25 / aq=3:0.80
Язык : English
Default : Да
Forced : Нет

Аудио #1
Идентификатор : 2
Формат : DTS
Формат/Информация : Digital Theater Systems
Режим : 16
Параметр Endianness формата : Big
Идентификатор кодека : A_DTS
Продолжительность : 1 ч. 55 м.
Вид битрейта : Постоянный
Битрейт : 768 Кбит/сек
Каналы : 6 каналов
Расположение каналов : Front: L C R, Side: L R, LFE
Частота : 48,0 КГц
Частота кадров : 93,750 кадра/сек (512 spf)
Битовая глубина : 24 бит
Метод сжатия : С потерями
Размер потока : 635 Мбайт (9%)
Заголовок : Blu-ray EUR
Язык : Russian
Default : Да
Forced : Нет

Аудио #2
Идентификатор : 3
Формат : AC-3
Формат/Информация : Audio Coding 3
Расширение режима : CM (complete main)
Параметр Endianness формата : Big
Идентификатор кодека : A_AC3
Продолжительность : 1 ч. 55 м.
Вид битрейта : Постоянный
Битрейт : 448 Кбит/сек
Каналы : 6 каналов
Расположение каналов : Front: L C R, Side: L R, LFE
Частота : 48,0 КГц
Частота кадров : 31,250 кадров/сек (1536 spf)
Метод сжатия : С потерями
Размер потока : 370 Мбайт (5%)
Заголовок : Blu-ray EUR
Язык : Ukrainian
Default : Нет
Forced : Нет

Аудио #3
Идентификатор : 4
Формат : DTS
Формат/Информация : Digital Theater Systems
Режим : 16
Параметр Endianness формата : Big
Идентификатор кодека : A_DTS
Продолжительность : 1 ч. 55 м.
Вид битрейта : Постоянный
Битрейт : 1509 Кбит/сек
Каналы : 6 каналов
Расположение каналов : Front: L C R, Side: L R, LFE
Частота : 48,0 КГц
Частота кадров : 93,750 кадра/сек (512 spf)
Битовая глубина : 24 бит
Метод сжатия : С потерями
Размер потока : 1,22 Гбайт (18%)
Язык : English
Default : Нет
Forced : Нет

Текст #1
Идентификатор : 5
Формат : UTF-8
Идентификатор кодека : S_TEXT/UTF8
Идентификатор кодека/Информация : UTF-8 Plain Text
Продолжительность : 1 ч. 31 м.
Битрейт : 8 бит/сек
Count of elements : 124
Размер потока : 5,91 Кбайт (0%)
Заголовок : Forced
Язык : Russian
Default : Да
Forced : Нет

Текст #2
Идентификатор : 6
Формат : UTF-8
Идентификатор кодека : S_TEXT/UTF8
Идентификатор кодека/Информация : UTF-8 Plain Text
Продолжительность : 1 ч. 38 м.
Битрейт : 43 бит/сек
Count of elements : 679
Размер потока : 31,3 Кбайт (0%)
Язык : Russian
Default : Нет
Forced : Нет

Текст #3
Идентификатор : 7
Формат : UTF-8
Идентификатор кодека : S_TEXT/UTF8
Идентификатор кодека/Информация : UTF-8 Plain Text
Продолжительность : 1 ч. 53 м.
Битрейт : 37 бит/сек
Count of elements : 676
Размер потока : 31,7 Кбайт (0%)
Язык : Ukrainian
Default : Нет
Forced : Нет

Текст #4
Идентификатор : 8
Формат : UTF-8
Идентификатор кодека : S_TEXT/UTF8
Идентификатор кодека/Информация : UTF-8 Plain Text
Продолжительность : 1 ч. 18 м.
Битрейт : 4 бит/сек
Count of elements : 99
Размер потока : 2,78 Кбайт (0%)
Заголовок : Forced
Язык : English
Default : Нет
Forced : Нет

Текст #5
Идентификатор : 9
Формат : UTF-8
Идентификатор кодека : S_TEXT/UTF8
Идентификатор кодека/Информация : UTF-8 Plain Text
Продолжительность : 1 ч. 42 м.
Битрейт : 26 бит/сек
Count of elements : 729
Размер потока : 20,0 Кбайт (0%)
Язык : English
Default : Нет
Forced : Нет

Текст #6
Идентификатор : 10
Формат : UTF-8
Идентификатор кодека : S_TEXT/UTF8
Идентификатор кодека/Информация : UTF-8 Plain Text
Продолжительность : 1 ч. 42 м.
Битрейт : 30 бит/сек
Count of elements : 884
Размер потока : 22,8 Кбайт (0%)
Заголовок : SDH
Язык : English
Default : Нет
Forced : Нет

Текст #7
Идентификатор : 11
Формат : UTF-8
Идентификатор кодека : S_TEXT/UTF8
Идентификатор кодека/Информация : UTF-8 Plain Text
Продолжительность : 1 ч. 42 м.
Битрейт : 37 бит/сек
Count of elements : 884
Размер потока : 27,7 Кбайт (0%)
Заголовок : SDH-COLORED
Язык : English
Default : Нет
Forced : Нет

Меню
00:00:00.000 : en:
00:06:04.155 : en:
00:09:32.697 : en:
00:12:47.517 : en:
00:16:47.715 : en:
00:21:07.433 : en:
00:26:56.448 : en:
00:31:55.080 : en:
00:38:06.284 : en:
00:41:43.167 : en:
00:46:33.040 : en:
00:50:10.257 : en:
00:53:04.390 : en:
00:56:17.624 : en:
00:59:26.480 : en:
01:02:32.582 : en:
01:06:37.035 : en:
01:13:08.759 : en:
01:18:45.888 : en:
01:23:01.101 : en:
01:30:17.996 : en:
01:34:18.194 : en:
01:37:45.193 : en:
01:40:51.003 : en:


Внимание! AdBlock блокирует показ скриншотов, все вопросы к разработчикам )))

Трекер:  [ 24-Мар-2017 20:30 ]

  

Скачать .torrent

Размер .torrent файла 17 KB


Размер: 6.81 GB
Хэш (hash) релиза: c3ab21038bc2bd7b6e3cc4c9c02655755bd933cd
Подписка на обновления:

Торренты, похожие на Кредо убийцы Assassins Creed скачать торрент

Форум Название Автор Размер S L Добавлен
Зарубежные фильмы до 2016 ·%· Кредо убийцы / Assassin's Creed (Джастин Курзель / Justin Kurzel) [2016, США, Франция, Великобритания, Гонконг, Тайвань, Мальта, Фантастика, фэнтези, боевик, приключения, DVD5 (сжатый)] исх. R5, Dub + Sub Rus + Original Eng Galfimbul 45020528644.19 GB 0 0 1531413072

19:31

12-Июл-18

Зарубежные фильмы до 2016 ·· Кредо убийцы / Assassin's Creed (Джастин Курзель / Justin Kurzel) [2016, США, Франция, Великобритания, Гонконг, Тайвань, Мальта, Фантастика, фэнтези, боевик, приключения, DVD9] R5 Dub + Sub Rus + Original Eng Galfimbul 80252026887.47 GB 0 0 1524837698

17:01

27-Апр-18

Зарубежные фильмы 2016-2019 (Новинки зарубежного кино) ·· Кредо убийцы / Assassin's Creed (Джастин Курзель / Justin Kurze) [2016, США, Франция, Великобритания, Гонконг, Тайвань, Мальта, фэнтези, боевик, приключения, BDRip] AVO (Юрий Сербин) Galfimbul 22108446722.06 GB 0 0 1523550623

19:30

12-Апр-18

Зарубежные фильмы 2016-2019 (Новинки зарубежного кино) ·· Кредо убийцы / Assassin's Creed (Джастин Курзель / Justin Kurzel) [2016, Великобритания, Франция, Гонконг, США, фантастика, фэнтези, боевик, BDRip-AVC] Dub + AVO (Живов) + Original Eng + Subs (Rus, Eng) Galfimbul 31226758112.91 GB 0 0 1504589422

08:30

5-Сен-17

Зарубежные фильмы 2016-2019 (Новинки зарубежного кино) ·· Кредо убийцы / Assassin's Creed (Джастин Курзель / Justin Kurzel) [2016, Великобритания, Франция, Гонконг, США, Тайвань, Мальта, Канада, фантастика, фэнтези, боевик, приключения, BDRip] AVO (Живов) Galfimbul 23063592962.15 GB 0 0 1504422069

10:01

3-Сен-17

Зарубежные фильмы 2016-2019 (Новинки зарубежного кино) ·· Кредо убийцы / Assassin's Creed (Джастин Курзель / Justin Kurzel) [2016, Великобритания, Франция, Гонконг, США, Тайвань, Мальта, Канада, фантастика, фэнтези, боевик, приключения, BDRip] Dub + Sub Rus Galfimbul 15680190921.46 GB 0 0 1504157420

08:30

31-Авг-17

Трейлеры и дополнительные материалы ·· Кредо Убийцы / Assassin's Creed (Джастин Курзель / Justin Kurzel) [2016, Фантастика | Фэнтези | Боевик | Приключения, BDRip 720p] дополнительные материалы Galfimbul 32230018643 GB 0 0 1493800079

11:27

3-Май-17

Зарубежные фильмы до 2016 ·· Кредо убийцы / Assassin's Creed (Джастин Курзель / Justin Kurzel) [2016, Великобритания, Франция, Гонконг, США, Тайвань, Мальта, Канада, фантастика, фэнтези, боевик, приключения, Blu-ray disc 1080p] [CEE] Dub + Sub Rus, Eng + Original Eng Galfimbul 4763794482744.37 GB 0 0 1492681945

12:52

20-Апр-17

Зарубежные фильмы до 2016 ·· Кредо убийцы / Assassin's Creed (Джастин Курзель / Justin Kurzel) [2016, Великобритания, Франция, Гонконг, США, Фантастика, фэнтези, боевик, приключения, BDRemux 1080p] Dub + Ukr + Sub (Rus, Eng) + Original (Eng) Galfimbul 2694103333125.09 GB 0 0 1491898853

11:20

11-Апр-17

Зарубежные фильмы до 2016 ·· Кредо убийцы / Assassin's Creed (Джастин Курзель / Justin Kurzel) [2016, Великобритания, Франция, Гонконг, США, Тайвань, Мальта, Канада, фантастика, фэнтези, боевик, приключения, BDRip 1080p] Dub (Blu-Ray EUR) + Sub Rus, Eng + Original Eng Galfimbul 1179467655910.98 GB 0 0 1490380551

21:35

24-Мар-17

Зарубежные фильмы 2016-2019 (Новинки зарубежного кино) ·· Кредо убийцы / Assassin's Creed (Джастин Курзель / Justin Kurzel) [2016,Великобритания, Франция, Гонконг, США, Фантастика, фэнтези, боевик, приключения, BDRip] DUB (BD EUR) + Original + Sub (rus,eng) Galfimbul 23150841062.16 GB 0 0 1489816660

08:57

18-Мар-17

Зарубежные фильмы 2016-2019 (Новинки зарубежного кино) ·· Кредо убийцы / Assassin's Creed (Джастин Курзель / Justin Kurzel) [2016, Великобритания, Франция, Гонконг, США, фантастика, фэнтези, боевик, BDRip-AVC] Dub + Original + Sub (rus, eng) Galfimbul 22394681722.09 GB 0 0 1489804431

05:33

18-Мар-17

Зарубежные фильмы 2016-2019 (Новинки зарубежного кино) ·· Кредо убийцы / Assassin's Creed (Джастин Курзель / Justin Kurzel) [2016, Великобритания, Фантастика, фэнтези, боевик, приключения, WEB-DLRip] [Локализованный видеоряд] Dub Galfimbul 15655649281.46 GB 0 0 1489488851

13:54

14-Мар-17

Зарубежные фильмы 2016-2019 (Новинки зарубежного кино) ·· Кредо убийцы / Assassin's Creed (Джастин Курзель / Justin Kurzel) [2016, Великобритания, Франция, Гонконг, США, фантастика, фэнтези, боевик, WEB-DLRip-AVC] Dub + Original + Sub (rus, eng) Galfimbul 20693467351.93 GB 0 0 1489488845

13:54

14-Мар-17

Зарубежные фильмы 2016-2019 (Новинки зарубежного кино) ·· Кредо убийцы / Assassin's Creed (Джастин Курзель / Justin Kurzel) [2016, Великобритания, Франция, Гонконг, США, фантастика, фэнтези, боевик, WEB-DLRip-AVC] Dub + Original + Sub (rus, eng) Galfimbul 15148517491.41 GB 0 0 1489488839

13:53

14-Мар-17

Зарубежные фильмы 2016-2019 (Новинки зарубежного кино) ·· Кредо убийцы / Assassin's Creed (Джастин Курзель) [2016, фантастика, фэнтези, боевик, приключения, BDRip 1080p] Galfimbul 106459604069.91 GB 0 0 1489488275

13:44

14-Мар-17

Зарубежные фильмы 2016-2019 (Новинки зарубежного кино) ·· Кредо убийцы / Assassin's Creed (Джастин Курзель) [2016, фантастика, фэнтези, боевик, приключения, BDRip 720p] Galfimbul 62563079425.83 GB 0 0 1489464649

07:10

14-Мар-17

Зарубежные фильмы 2016-2019 (Новинки зарубежного кино) ·· Кредо убийцы / Assassin's Creed (Джастин Курзель) [2016, фантастика, фэнтези, боевик, приключения, BDRip 1080p] Galfimbul 97781865469.11 GB 0 0 1489464644

07:10

14-Мар-17

Зарубежные фильмы 2016-2019 (Новинки зарубежного кино) ·· Кредо убийцы / Assassin's Creed (Джастин Курзель) [2016, фантастика, фэнтези, боевик, приключения, WEBRip 720р] Galfimbul 38000370943.54 GB 0 0 1489338920

20:15

12-Мар-17

Еще никто не оставлял запись к записи скачать торрент Кредо убийцы Assassins Creed . Будь первым!

!Обратная связь