Скачать через торрент Закон ночи Live by Night Фильм бесплатно в хорошем качестве torrent

Скачивайте на UnionPeer.org фильмы через торрент без регистрации. Новинки кино в хорошем качестве через торрент. На UnionPeer.org можно скачать через торрент фильмы 2014 и 2015 годов. Самые новые фильмы.

Скачать торрент Закон ночи Live by Night бесплатно через .torrent фильм мультфильм сериал

Статистика раздачи
Размер:  9.33 GB   |    Зарегистрирован:  6 лет 11 месяцев   |    .torrent скачан:  49 раз   |   
Раздают:  1  
 

Скачать Закон ночи / Live by Night (Бен Аффлек / Ben Affleck) [2016, США, драма, криминал, BDRip 1080p] Dub (iTunes) + Sub Rus, Eng + Original Eng через torrent

 
 
Автор Сообщение

Galfimbul

avatar Galfimbul


Закон ночи / Live by Night

Страна: США
Студия: Appian Way, МОСФИЛЬМ-мастер, Pearl Street Films, Warner Bros. Pictures
Жанр: драма, криминал
Год выпуска: 2016
Продолжительность: 02:08:49

Перевод: Профессиональный (дублированный) iTunes
Cубтитры: Русские, Украинские, Английские
Оригинальная аудиодорожка: английский

Режиссер: Бен Аффлек / Ben Affleck

В ролях: Бен Аффлек, Крис Мессина, Зои Салдана, Сиенна Миллер, Крис Купер, Эль Фаннинг, Брендан Глисон, Мигель, Ремо Джироне, Роберт Гленистер

Описание: Действие происходит в Америке времен сухого закона. Главный герой картины, сын полицейского, зарабатывает бутлегерством, в результате чего он оказывается вовлечен в жизнь криминального мира.

<div class="post-box">Скачать сэмпл</div>

Тип релиза: BDRip 1080p
Контейнер: MKV

Видео: MPEG-4 AVC, 8474 Кбит/с, 1920x800, 23,976 fps
Аудио 1: Rus, AC3, 384 kb/s (6 ch), 48 kHz
Аудио 2: Eng, DTS, 1509 kb/s (6 ch), 48 kHz
Общее
Уникальный идентификатор : 178209442323826007723064874286917200662 (0x8611E3DFD91BDA4FAEB3EEEB828DAB16)
Полное имя : Live.by.Night.2016.BDRip.1080p.mkv
Формат : Matroska
Версия формата : Version 4 / Version 2
Размер файла : 9,33 Гбайт
Продолжительность : 2 ч. 8 м.
Общий поток : 10,4 Мбит/сек
Дата кодирования : UTC 2017-03-12 10:47:55
Программа кодирования : mkvmerge v9.9.0 ('Pick Up') 64bit
Библиотека кодирования : libebml v1.3.4 + libmatroska v1.4.5

Видео
Идентификатор : 1
Формат : AVC
Формат/Информация : Advanced Video Codec
Профиль формата : [email protected]
Параметр CABAC формата : Да
Параметр ReFrames формата : 4 кадра
Идентификатор кодека : V_MPEG4/ISO/AVC
Продолжительность : 2 ч. 8 м.
Битрейт : 8474 Кбит/сек
Ширина : 1920 пикселей
Высота : 800 пикселей
Соотношение сторон : 2,40:1
Режим частоты кадров : Постоянный
Частота кадров : 23,976 (24000/1001) кадра/сек
Цветовое пространство : YUV
Субдискретизация насыщенности : 4:2:0
Битовая глубина : 8 бит
Тип развёртки : Прогрессивная
Бит/(Пиксели*Кадры) : 0.230
Размер потока : 7,63 Гбайт (82%)
Библиотека кодирования : x264 core 149 r2771+45 509cceb 7mod [8-bit@all X86_64]
Настройки программы : cabac=1 / ref=4 / deblock=1:-3:-3 / analyse=0x3:0x113 / me=umh / subme=10 / psy=1 / fade_compensate=0.00 / psy_rd=1.00:0.05 / mixed_ref=1 / me_range=48 / chroma_me=1 / trellis=2 / 8x8dct=1 / cqm=0 / deadzone=21,11 / fast_pskip=0 / chroma_qp_offset=-2 / threads=12 / lookahead_threads=2 / sliced_threads=0 / nr=0 / decimate=1 / interlaced=0 / bluray_compat=0 / constrained_intra=0 / fgo=0 / bframes=8 / b_pyramid=2 / b_adapt=2 / b_bias=0 / direct=3 / weightb=1 / open_gop=0 / weightp=2 / keyint=250 / keyint_min=23 / scenecut=40 / intra_refresh=0 / rc_lookahead=40 / rc=crf / mbtree=0 / crf=17.0000 / qcomp=0.60 / qpmin=0:0:0 / qpmax=69:69:69 / qpstep=4 / vbv_maxrate=50000 / vbv_bufsize=45000 / crf_max=0.0 / nal_hrd=none / filler=0 / ip_ratio=1.40 / pb_ratio=1.30 / aq=3:1.00 / aq-sensitivity=10.00 / aq-factor=1.00:1.00:1.00 / aq2=0 / aq3=0
Язык : English
Default : Да
Forced : Нет
Цветовой диапазон : Limited
Коэффициенты матрицы : BT.709

Аудио #1
Идентификатор : 2
Формат : AC-3
Формат/Информация : Audio Coding 3
Расширение режима : CM (complete main)
Параметр Endianness формата : Big
Идентификатор кодека : A_AC3
Продолжительность : 2 ч. 8 м.
Вид битрейта : Постоянный
Битрейт : 384 Кбит/сек
Каналы : 6 каналов
Расположение каналов : Front: L C R, Side: L R, LFE
Частота : 48,0 КГц
Частота кадров : 31,250 кадров/сек (1536 spf)
Метод сжатия : С потерями
Размер потока : 354 Мбайт (4%)
Заголовок : iTunes
Язык : Russian
Default : Да
Forced : Нет

Аудио #2
Идентификатор : 3
Формат : DTS
Формат/Информация : Digital Theater Systems
Режим : 16
Параметр Endianness формата : Big
Идентификатор кодека : A_DTS
Продолжительность : 2 ч. 8 м.
Вид битрейта : Постоянный
Битрейт : 1509 Кбит/сек
Каналы : 6 каналов
Расположение каналов : Front: L C R, Side: L R, LFE
Частота : 48,0 КГц
Частота кадров : 93,750 кадра/сек (512 spf)
Битовая глубина : 24 бит
Метод сжатия : С потерями
Размер потока : 1,36 Гбайт (15%)
Язык : English
Default : Нет
Forced : Нет

Текст #1
Идентификатор : 4
Формат : UTF-8
Идентификатор кодека : S_TEXT/UTF8
Идентификатор кодека/Информация : UTF-8 Plain Text
Продолжительность : 1 ч. 57 м.
Битрейт : 1 бит/сек
Count of elements : 25
Размер потока : 1019 байт (0%)
Заголовок : Forced
Язык : Russian
Default : Да
Forced : Нет

Текст #2
Идентификатор : 5
Формат : UTF-8
Идентификатор кодека : S_TEXT/UTF8
Идентификатор кодека/Информация : UTF-8 Plain Text
Продолжительность : 2 ч. 8 м.
Битрейт : 98 бит/сек
Count of elements : 1623
Размер потока : 92,1 Кбайт (0%)
Язык : Russian
Default : Нет
Forced : Нет

Текст #3
Идентификатор : 6
Формат : UTF-8
Идентификатор кодека : S_TEXT/UTF8
Идентификатор кодека/Информация : UTF-8 Plain Text
Продолжительность : 1 ч. 49 м.
Битрейт : 1 бит/сек
Count of elements : 24
Размер потока : 935 байт (0%)
Язык : Ukrainian
Default : Нет
Forced : Нет

Текст #4
Идентификатор : 7
Формат : UTF-8
Идентификатор кодека : S_TEXT/UTF8
Идентификатор кодека/Информация : UTF-8 Plain Text
Продолжительность : 2 ч. 3 м.
Битрейт : 66 бит/сек
Count of elements : 1898
Размер потока : 60,3 Кбайт (0%)
Язык : English
Default : Нет
Forced : Нет

Меню
00:00:00.000 : :00:00:00.000
00:11:12.797 : :00:11:12.797
00:20:26.267 : :00:20:26.267
00:33:14.659 : :00:33:14.659
00:43:34.070 : :00:43:34.070
00:52:53.087 : :00:52:53.087
01:02:26.534 : :01:02:26.534
01:12:47.530 : :01:12:47.530
01:24:12.714 : :01:24:12.714
01:34:19.863 : :01:34:19.863
01:38:15.723 : :01:38:15.723
01:48:57.948 : :01:48:57.948
01:53:29.970 : :01:53:29.970
02:01:57.143 : :02:01:57.143


Внимание! AdBlock блокирует показ скриншотов, все вопросы к разработчикам )))
Трекер:  [ 24-Мар-2017 20:30 ]

  

Скачать .torrent

Размер .torrent файла 24 KB


Размер: 9.33 GB
Хэш (hash) релиза: 956505c12c2fa68101439712df0e4fee596fdbc6
Подписка на обновления:

Торренты, похожие на Закон ночи Live by Night скачать торрент

Форум Название Автор Размер S L Добавлен
Зарубежные фильмы 2016-2019 (Новинки зарубежного кино) ·%· Закон ночи / Live by Night (2016) BDRip 1080p от New-Team & qqss44 | Лицензия Galfimbul 72916543496.79 GB 0 0 1570945833

08:50

13-Окт-19

Зарубежные фильмы 2016-2019 (Новинки зарубежного кино) ·%· Закон ночи / Live by Night (2016) WEB-DLRip-AVC | D | Open Matte Galfimbul 11618909161.08 GB 0 0 1557400814

14:20

9-Май-19

Зарубежные фильмы 2016-2019 (Новинки зарубежного кино) ·%· Закон ночи / Live by Night (2016) WEB-DL 1080p | D Galfimbul 51292156014.78 GB 0 0 1553172611

15:50

21-Мар-19

Зарубежные фильмы 2016-2019 (Новинки зарубежного кино) ·%· Закон ночи / Live by Night (2016) BDRip 1080p | D, A Galfimbul 93488197038.71 GB 0 0 1530367900

17:11

30-Июн-18

Зарубежные фильмы 2016-2019 (Новинки зарубежного кино) ·%· Закон ночи / Live by Night (2016) BDRemux | D, A Galfimbul 3126798794429.12 GB 0 0 1530080413

09:20

27-Июн-18

Зарубежные фильмы до 2016 ·· Закон ночи / Live by Night (Бен Аффлек / Ben Affleck) [2016, США, боевик, триллер, драма, криминал, BD>DVD9 (Custom)] DUB + Sub Rus / Eng + Original Eng Galfimbul 83771781127.8 GB 0 0 1511098609

16:36

19-Ноя-17

Зарубежные фильмы до 2016 ·· Закон ночи / Live by Night (Бен Аффлек / Ben Affleck) [2016, США, Драма, криминал, DVD5 (сжатый)] исх. R2, Dub + Sub Rus + Original Eng Galfimbul 46867824644.36 GB 0 0 1501142775

11:06

27-Июл-17

Зарубежные фильмы до 2016 ·· Закон ночи / Live by Night (Бен Аффлек / Ben Affleck) [2016, США, Гангстерская драма, DVD9] Dub + Sub Rus + Original Eng Galfimbul 68364792056.37 GB 0 0 1500735976

18:06

22-Июл-17

Трейлеры и дополнительные материалы ·· Закон Ночи / Live by Night (Бен Аффлек / Ben Affleck) [2016, Драма | Криминал, BDRip 720p] дополнительные материалы Galfimbul 15050446781.4 GB 0 0 1493800090

11:28

3-Май-17

Зарубежные фильмы 2016-2019 (Новинки зарубежного кино) ·· Закон ночи / Live by Night (Бен Аффлек / Ben Affleck) [2016, США, драма, криминал, Blu-ray 1080p] Лицензия Galfimbul 4503820108341.95 GB 0 0 1491545801

09:16

7-Апр-17

Зарубежные фильмы до 2016 ·· Закон ночи / Live by Night (Бен Аффлек / Ben Affleck) [2016, США, драма, криминал, Blu-ray disc 1080p] Dub (CEE) + Sub Rus, Eng + Original Eng Galfimbul 4503820108341.95 GB 0 0 1491544170

08:49

7-Апр-17

Зарубежные фильмы до 2016 ·· Закон ночи / Live by Night (Бен Аффлек / Ben Affleck) [2016, США, драма, криминал, BDRip 1080p] Dub (Blu-Ray CEE) + Sub Rus, Eng + Original Eng Galfimbul 1621871403815.1 GB 0 0 1491472195

12:49

6-Апр-17

Зарубежные фильмы 2016-2019 (Новинки зарубежного кино) ·· Закон ночи / Live by Night (Бен Аффлек / Ben Affleck) [2016, США, драма, криминал, BDRip 720p] Лицензия Galfimbul 85261271397.94 GB 0 0 1491464677

10:44

6-Апр-17

Зарубежные фильмы 2016-2019 (Новинки зарубежного кино) ·· Закон ночи / Live by Night (Бен Аффлек / Ben Affleck) [2016, США, драма, криминал, BDRip 1080p] Лицензия Galfimbul 1621968970915.11 GB 0 0 1491464670

10:44

6-Апр-17

Зарубежные фильмы до 2016 ·· Закон ночи / Live by Night (Бен Аффлек / Ben Affleck) [2016, США, драма, криминал, BDRip 720p] Dub (iTunes) + Sub Rus, Eng + Original Eng Galfimbul 64721499596.03 GB 0 0 1490380756

21:39

24-Мар-17

Зарубежные фильмы 2016-2019 (Новинки зарубежного кино) ·· Закон ночи / Live by Night (Бен Аффлек / Ben Affleck) [2016, США, драма, криминал, BDRip-AVC] Dub + Original + Sub (rus, eng) Galfimbul 21632043832.01 GB 0 0 1489526875

00:27

15-Мар-17

Зарубежные фильмы 2016-2019 (Новинки зарубежного кино) ·· Закон ночи / Live by Night (Бен Аффлек / Ben Affleck) [2016, США, Драма, криминал, WEB-DLRip] Dub (iTunes) Galfimbul 15744901121.47 GB 0 0 1489488921

13:55

14-Мар-17

Зарубежные фильмы 2016-2019 (Новинки зарубежного кино) ·· Закон ночи / Live by Night (Бен Аффлек / Ben Affleck) [2016, США, драма, криминал, WEB-DLRip-AVC] Dub + Original + Sub (rus, eng) Galfimbul 22781077802.12 GB 0 0 1489488907

13:55

14-Мар-17

Зарубежные фильмы 2016-2019 (Новинки зарубежного кино) ·· Закон ночи / Live by Night (Бен Аффлек / Ben Affleck) [2016, США, драма, криминал, WEB-DLRip-AVC] Dub + Sub (rus) Galfimbul 16175253741.51 GB 0 0 1489488900

13:55

14-Мар-17

Еще никто не оставлял запись к записи скачать торрент Закон ночи Live by Night . Будь первым!

!Обратная связь