Скачать через торрент Странствие Фанни Le voyage de Fanny Фильм бесплатно в хорошем качестве torrent

Скачивайте на UnionPeer.org фильмы через торрент без регистрации. Новинки кино в хорошем качестве через торрент. На UnionPeer.org можно скачать через торрент фильмы 2014 и 2015 годов. Самые новые фильмы.

Скачать торрент Странствие Фанни Le voyage de Fanny бесплатно через .torrent фильм мультфильм сериал

Статистика раздачи
Размер:  4.89 GB   |    Зарегистрирован:  7 лет   |    .torrent скачан:  42 раза   |   
Раздают:  1  
 

Скачать Странствие Фанни / Le voyage de Fanny / Fanny's Journey (Лола Доийон / Lola Doillon) [2016, Франция, драма, BDRip 720p] через torrent

 
 
Автор Сообщение

Galfimbul

avatar Galfimbul


Странствие Фанни /Le voyage de Fanny

Год выхода: 2016
Жанр: драма
Режиссер: Лола Дуайон
В ролях: Леони Сушо, Фантине Хардуин, Джулиана Лепюрье, Райан Броди, Анаис Меринжер, Лу Ламбрехт, Игорь ван Дессель, Сесиль Де Франс, Стефан Де Гродт, Мэлонн Левана

О фильме:
История о группе еврейских детей, вынужденных бежать из оккупированной немецко-фашистскими войсками Франции. 12-летней девочкой Фанни Бет-Ами была оставлена матерью на попечение специального пансиона, откуда ей пришлось бежать со своими младшими сестрами — Эрикой и Жоржеттой. Вместе с ними в силу сложившихся обстоятельств, угрожающих жизни детей, бегут ещё несколько подростков-евреев. И пока немногочисленные взрослые на свой страх и риск помогают детям, у последних не возникает вопроса, куда именно они бегут…



Страна: Франция
Студия: Origami Films, Bee Films, Davis-Films, Scope Pictures, France 2 Cin?ma, Rh?ne-Alpes Cin?ma, Ce Qui Me Meut Motion Pictures
Продолжительность: 01:35:03
Перевод: Авторский (одноголосый, закадровый) А.Карповский

Файл
Формат: Matroska
Качество: BDRip 720p
Видео: 1280x536 at 23.976 fps, [email protected], ~5932 kbps avg
Аудио#1: Russian: 48 kHz, AC3, 3/2 (L,C,R,l,r) + LFE ch, ~640 kbps avg |Авторский, А.Карповский|
Аудио#2: French: 48 kHz, AC3, 3/2 (L,C,R,l,r) + LFE ch, ~640 kbps avg
Субтитры: French (SDH)

***Сохранены оригинальные главы как на Blu-ray.
***Релиз - ylnian.
Общее
Уникальный идентификатор : 224674287392425571931960026748131496496 (0xA906B19BB7659148AC4BE6A449CC5230)
Полное имя : Le.voyage.de.Fanny.2016.BDRip.720p-ylnian.mkv
Формат : Matroska
Версия формата : Version 4 / Version 2
Размер файла : 4,89 Гбайт
Продолжительность : 1 ч. 35 м.
Общий поток : 7358 Кбит/сек
Название фильма : Le.voyage.de.Fanny.2016.BDRip.720p-ylnian
Дата кодирования : UTC 2017-03-28 12:42:09
Программа кодирования : mkvmerge v9.9.0 ('Pick Up') 64bit
Библиотека кодирования : libebml v1.3.4 + libmatroska v1.4.5

Видео
Идентификатор : 1
Формат : AVC
Формат/Информация : Advanced Video Codec
Профиль формата : [email protected]
Параметр CABAC формата : Да
Параметр ReFrames формата : 12 кадров
Идентификатор кодека : V_MPEG4/ISO/AVC
Продолжительность : 1 ч. 35 м.
Битрейт : 5932 Кбит/сек
Ширина : 1280 пикселей
Высота : 536 пикселей
Соотношение сторон : 2,40:1
Режим частоты кадров : Постоянный
Частота кадров : 23,976 кадра/сек
Цветовое пространство : YUV
Субдискретизация насыщенности : 4:2:0
Битовая глубина : 8 бит
Тип развёртки : Прогрессивная
Бит/(Пиксели*Кадры) : 0.361
Размер потока : 3,94 Гбайт (81%)
Заголовок : Le.Voyage.De.Fanny.2016.FRENCH.720p.BluRay.DTS.x264-HUNTER
Библиотека кодирования : x264 core 148 r2721 72d53ab
Настройки программы : cabac=1 / ref=12 / deblock=1:-3:-3 / analyse=0x3:0x133 / me=umh / subme=11 / psy=1 / psy_rd=0.95:0.10 / mixed_ref=1 / me_range=64 / chroma_me=1 / trellis=2 / 8x8dct=1 / cqm=0 / deadzone=6,6 / fast_pskip=0 / chroma_qp_offset=-2 / threads=12 / lookahead_threads=2 / sliced_threads=0 / nr=0 / decimate=1 / interlaced=0 / bluray_compat=0 / constrained_intra=0 / bframes=8 / b_pyramid=2 / b_adapt=2 / b_bias=0 / direct=3 / weightb=1 / open_gop=0 / weightp=2 / keyint=250 / keyint_min=23 / scenecut=40 / intra_refresh=0 / rc_lookahead=120 / rc=crf / mbtree=1 / crf=14.0 / qcomp=0.60 / qpmin=0 / qpmax=69 / qpstep=4 / vbv_maxrate=30000 / vbv_bufsize=38000 / crf_max=0.0 / nal_hrd=none / filler=0 / ip_ratio=1.40 / aq=3:0.80 / zones=0,968,b=0.2/2811,3511,b=0.2/130656,136740,crf=25
Язык : French
Default : Да
Forced : Да
Основные цвета : BT.709
Характеристики трансфера : BT.709
Коэффициенты матрицы : BT.709

Аудио #1
Идентификатор : 2
Формат : AC-3
Формат/Информация : Audio Coding 3
Расширение режима : CM (complete main)
Параметр Endianness формата : Big
Идентификатор кодека : A_AC3
Продолжительность : 1 ч. 35 м.
Вид битрейта : Постоянный
Битрейт : 640 Кбит/сек
Каналы : 6 каналов
Расположение каналов : Front: L C R, Side: L R, LFE
Частота : 48,0 КГц
Битовая глубина : 16 бит
Метод сжатия : С потерями
Размер потока : 435 Мбайт (9%)
Заголовок : AVO (AC3 5.1 640 kbps)
Язык : Russian
Default : Да
Forced : Да

Аудио #2
Идентификатор : 3
Формат : AC-3
Формат/Информация : Audio Coding 3
Расширение режима : CM (complete main)
Параметр Endianness формата : Big
Идентификатор кодека : A_AC3
Продолжительность : 1 ч. 35 м.
Вид битрейта : Постоянный
Битрейт : 640 Кбит/сек
Каналы : 6 каналов
Расположение каналов : Front: L C R, Side: L R, LFE
Частота : 48,0 КГц
Битовая глубина : 16 бит
Метод сжатия : С потерями
Размер потока : 435 Мбайт (9%)
Заголовок : AC3 5.1 640 kbps
Язык : French
Default : Нет
Forced : Нет

Текст
Идентификатор : 4
Формат : UTF-8
Идентификатор кодека : S_TEXT/UTF8
Идентификатор кодека/Информация : UTF-8 Plain Text
Заголовок : SRT FR complets SDH
Язык : French
Default : Нет
Forced : Нет

Меню
00:00:00.000 : en:Chapter 1
00:10:54.820 : en:Chapter 2
00:21:45.095 : en:Chapter 3
00:32:40.667 : en:Chapter 4
00:41:07.506 : en:Chapter 5
00:50:58.972 : en:Chapter 6
01:02:11.769 : en:Chapter 7
01:13:56.515 : en:Chapter 8
01:23:27.836 : en:Chapter 9
01:31:15.261 : en:Chapter 10


Внимание! AdBlock блокирует показ скриншотов, все вопросы к разработчикам )))

Трекер:  [ 28-Мар-2017 17:30 ]

  

Скачать .torrent

Размер .torrent файла 25 KB


Размер: 4.89 GB
Хэш (hash) релиза: d35c859f6ee62d018aa352e942b884bd6b411853
Подписка на обновления:

Еще никто не оставлял запись к записи скачать торрент Странствие Фанни Le voyage de Fanny . Будь первым!

!Обратная связь