Скачать через торрент Монстр-траки Monster Trucks Фильм бесплатно в хорошем качестве torrent

Скачивайте на UnionPeer.org фильмы через торрент без регистрации. Новинки кино в хорошем качестве через торрент. На UnionPeer.org можно скачать через торрент фильмы 2014 и 2015 годов. Самые новые фильмы.

Скачать торрент Монстр-траки Monster Trucks бесплатно через .torrent фильм мультфильм сериал

Статистика раздачи
Размер:  745 MB   |    Зарегистрирован:  6 лет 8 месяцев   |    .torrent скачан:  176 раз   |   
Раздают:  1  
 

Скачать Монстр-траки / Monster Trucks (Крис Уэдж / Chris Wedge) [2016, США, Фантастика, боевик, комедия, семейный, HDRip] Dub (iTunes) через torrent

 
 
Автор Сообщение

Galfimbul

avatar Galfimbul


Монстр-траки / Monster Trucks

Страна: США, Канада
Жанр: фантастика, боевик, комедия, семейный
Год выпуска: 2016
Продолжительность: 01:44:44

Перевод: Профессиональный (дублированный) iTunes
Cубтитры: Русские на надписи (отдельно)
Режиссер: Крис Уэдж / Chris Wedge

В ролях: Льюис МакДугалл, Сигурни Уивер, Фелисити Джонс, Тоби Кеббелл, Лиам Нисон, Бен Моор, Джеймс Мелвилл, Оливер Стир, Доминик Бойл, Дженнифер Лим, Макс Габбей

Описание: Старшеклассник Трипп мечтает сбежать из скучного городка, где родился и вырос, и увлеченно собирает монстр-трак из обломков старых авто. И когда происшествие на буровой вышке высвобождает из-под земли удивительное создание, знающее толк в скорости, у Триппа появляется реальный шанс не только наконец-то изменить жизнь, но и обрести настоящего друга… Если, конечно, никто не вмешается.

Релиз группа - Megapeer

Сэмпл

Качество видео: HDRip
Формат видео: AVI

Видео: 688x288 (2.39:1), 23.976 fps, XviD build 73 ~861 kbps avg, 0.18 bit/pixel
Аудио: 48 kHz, MPEG Layer 3, 2 ch, ~128.00 kbps avg - iTunes
ОбщееПолное имя : D:\Торрент\Monster.Trucks.2016.HDRip.745MB.MegaPeer\Monster.Trucks.2016.HDRip.745MB.MegaPeer.aviФормат : AVIФормат/Информация : Audio Video InterleaveРазмер файла : 745 МбайтПродолжительность : 1 ч. 44 м.Общий поток : 995 Кбит/сек

ВидеоИдентификатор : 0Формат : MPEG-4 VisualПрофиль формата : Advanced Simple@L5Параметр BVOP формата : 1Параметр QPel формата : НетПараметр GMC формата : Без точки переходаПараметр матрицы формата : ВыборочнаяИдентификатор кодека : XVIDИдентификатор кодека/Подсказка : XviDПродолжительность : 1 ч. 44 м.Битрейт : 861 Кбит/секШирина : 688 пикселейВысота : 288 пикселейСоотношение сторон : 2,40:1Частота кадров : 23,976 (24000/1001) кадра/секЦветовое пространство : YUVСубдискретизация насыщенности : 4:2:0Битовая глубина : 8 битТип развёртки : ПрогрессивнаяМетод сжатия : С потерямиБит/(Пиксели*Кадры) : 0.181Размер потока : 645 Мбайт (87%)Библиотека кодирования : XviD 73

АудиоИдентификатор : 1Формат : MPEG AudioВерсия формата : Version 1Профиль формата : Layer 3Режим : Joint stereoИдентификатор кодека : 55Идентификатор кодека/Подсказка : MP3Продолжительность : 1 ч. 44 м.Вид битрейта : ПостоянныйБитрейт : 128 Кбит/секКаналы : 2 каналаЧастота : 48,0 КГцМетод сжатия : С потерямиРазмер потока : 95,9 Мбайт (13%)Выравнивание : Соединение по промежуткамПродолжительность промежутка : 167 мс. (4,00 видеокадра)Время предзагрузки промежутка : 216 мс.Заголовок : iTunesБиблиотека кодирования : LAME3.99rНастройки программы : -m j -V 4 -q 2 -lowpass 17 -b 128



Внимание! AdBlock блокирует показ скриншотов, все вопросы к разработчикам )))
Трекер:  [ 31-Мар-2017 12:30 ]

  

Скачать .torrent

Размер .torrent файла 15 KB


Размер: 745 MB
Хэш (hash) релиза: 9c6743145f6bda60a5a57d150ed9cbca68a47008
Подписка на обновления:

Торренты, похожие на Монстр-траки Monster Trucks скачать торрент

Форум Название Автор Размер S L Добавлен
Зарубежные фильмы до 2016 ·· Монстр-траки / Monster Trucks (Крис Уэдж / Chris Wedge) [2016, США, Канада, Фантастика, боевик, комедия, семейный, DVD9] R5 Dub + Sub Rus + Original Eng Galfimbul 59415306245.53 GB 0 0 1525197692

21:01

1-Май-18

Трейлеры и дополнительные материалы ·· Монстр-Траки / Monster Trucks (Крис Уэдж) [2016, Фантастика | Боевик | Комедия | Семейный, BDRip 720p] дополнительные материалы Galfimbul 13278887321.24 GB 0 0 1493800068

11:27

3-Май-17

Зарубежные фильмы до 2016 ·· Монстр-траки / Monster Trucks (Крис Уэдж / Chris Wedge) [2016, США, Канада, фантастика, боевик, комедия, семейный, Blu-ray disc 1080p] Dub (EUR) + Sub Rus, Eng + Original Eng Galfimbul 4313672538140.17 GB 0 0 1492438923

17:22

17-Апр-17

Зарубежные фильмы до 2016 ·· Монстр-траки / Monster Trucks (Крис Уэдж / Chris Wedge) [2016, США, Фантастика, боевик, комедия, семейный, BDRip 720p] Dub (iTunes) + Original (Eng) + Sub (Rus, Eng) Galfimbul 42424892503.95 GB 0 0 1490965219

16:00

31-Мар-17

Зарубежные фильмы 2016-2019 (Новинки зарубежного кино) ·· Монстр-траки / Monster Trucks (Крис Уэдж / Chris Wedge) [2016, США, Фантастика, боевик, комедия, семейный, HDRip] Dub (iTunes) + Original + Sub (rus, eng) Galfimbul 23180274832.16 GB 0 0 1490956440

13:34

31-Мар-17

Зарубежные фильмы 2016-2019 (Новинки зарубежного кино) ·· Монстр-траки / Monster Trucks (Крис Уэдж) [2016, фантастика, боевик, комедия, семейный, BDRip 1080p] iTunes Galfimbul 85155263357.93 GB 0 0 1490821892

00:11

30-Мар-17

Зарубежные фильмы 2016-2019 (Новинки зарубежного кино) ·· Монстр-траки / Monster Trucks (Крис Уэдж) [2016, фантастика, боевик, комедия, семейный, HDRip] iTunes Galfimbul 14673244161.37 GB 0 0 1490815225

22:20

29-Мар-17

Зарубежные фильмы 2016-2019 (Новинки зарубежного кино) ·· Монстр-траки / Monster Trucks (Крис Уэдж) [2016, фантастика, боевик, комедия, семейный, CAMRip] Galfimbul 14677381121.37 GB 0 0 1483519335

11:42

4-Янв-17

Еще никто не оставлял запись к записи скачать торрент Монстр-траки Monster Trucks . Будь первым!

!Обратная связь