Скачать через торрент Дары смерти Дьявольские леденцы Фильм бесплатно в хорошем качестве torrent

Скачивайте на UnionPeer.org фильмы через торрент без регистрации. Новинки кино в хорошем качестве через торрент. На UnionPeer.org можно скачать через торрент фильмы 2014 и 2015 годов. Самые новые фильмы.

Скачать торрент Дары смерти Дьявольские леденцы бесплатно через .torrent фильм мультфильм сериал

Статистика раздачи
Размер:  1.45 GB   |    Зарегистрирован:  6 лет 10 месяцев   |    .torrent скачан:  43 раза   |   
Раздают:  1  
 

Скачать Дары смерти / Дьявольские леденцы / The Devil's Candy (Шон Бирн / Sean Byrne) [2015, США, ужасы, WEB-DLRip] DUB (iTunes) через torrent

 
 
Автор Сообщение

Galfimbul

avatar Galfimbul


Дары смерти / Дьявольские леденцы / The Devil's Candy«Не открывай портал в ад»
Страна: США
Жанр: ужасы
Год выпуска: 2015
Продолжительность: 01:16:16
Перевод: Профессиональный (дублированный) - (iTunes)
Cубтитры: нет
Оригинальная аудиодорожка: нет

Режиссер: Шон Бирн / Sean Byrne

В ролях: Итэн Эмбри, Шири Эпплби, Кьяра Гласко, Прюитт Тейлор Винс, Крэйг Най, Марко Перелья, Орайн Ланда, Милинда Ройер, Дебора Эбботт, Тони Амендола

Описание: Художник Джесси с женой и дочерью Зои переезжает в дом своей мечты. Здесь он испытывает небывалое вдохновение, граничащее с одержимостью. Но его новые картины — жуткие и пугающие, они нарисованы благодаря злу, которое живёт в этом доме и требует подношений. А дети — самые желанные для дьявола дары. Очередной избранницей потустороннего становится Зои.

Сэмпл: http://multi-up.com/1148258

Качество видео: WEB-DLRip
Исходник: Dary.smerti.2O15.D.WEBDL.72Op
Формат видео: AVI
Видео: 720x304 (2.37:1), 25 fps, XviD build 65 ~2320 kbps avg, 0.42 bit/pixel
Аудио RUS: 48 kHz, AC3 Dolby Digital, 3/2 (L,C,R,l,r) + LFE ch, ~384 kbps
Rip by Ториял для
Format : AVI
Format/Info : Audio Video Interleave
File size : 1.45 GiB
Duration : 1 h 16 min
Overall bit rate : 2 714 kb/s
Writing application : VirtualDubMod 1.5.10.3 | www.virtualdub-fr.org || (build 2550/release)
Writing library : VirtualDubMod build 2550/release

Video
ID : 0
Format : MPEG-4 Visual
Format profile : Advanced Simple@L5
Format settings, BVOP : 1
Format settings, QPel : No
Format settings, GMC : No warppoints
Format settings, Matrix : Custom
Codec ID : XVID
Codec ID/Hint : XviD
Duration : 1 h 16 min
Bit rate : 2 320 kb/s
Width : 720 pixels
Height : 304 pixels
Display aspect ratio : 2.35:1
Frame rate : 25.000 FPS
Color space : YUV
Chroma subsampling : 4:2:0
Bit depth : 8 bits
Scan type : Progressive
Compression mode : Lossy
Bits/(Pixel*Frame) : 0.424
Stream size : 1.24 GiB (85%)
Writing library : XviD 65

Audio
ID : 1
Format : AC-3
Format/Info : Audio Coding 3
Format settings, Endianness : Big
Codec ID : 2000
Duration : 1 h 16 min
Bit rate mode : Constant
Bit rate : 384 kb/s
Channel(s) : 6 channels
Channel positions : Front: L C R, Side: L R, LFE
Sampling rate : 48.0 kHz
Frame rate : 31.250 FPS (1536 spf)
Bit depth : 16 bits
Compression mode : Lossy
Stream size : 210 MiB (14%)
Alignment : Split accross interleaves
Interleave, duration : 40 ms (1.00 video frame)
Interleave, preload duratio : 500 ms
Service kind : Complete Main


Внимание! AdBlock блокирует показ скриншотов, все вопросы к разработчикам )))
Трекер:  [ 03-Апр-2017 07:30 ]

  

Скачать .torrent

Размер .torrent файла 15 KB


Размер: 1.45 GB
Хэш (hash) релиза: a2de1116b17de1259bc364604c975430620aafe7
Подписка на обновления:

Торренты, похожие на Дары смерти Дьявольские леденцы скачать торрент

Форум Название Автор Размер S L Добавлен
Зарубежные фильмы до 2016 ·· Дары смерти / Дьявольские леденцы / The Devil's Candy (Шон Бирн / Sean Byrne) [2015, США, ужасы, триллер, BDRip] Dub (iTunes) + Original Eng Galfimbul 15631093761.46 GB 0 0 1495784271

10:37

26-Май-17

Еще никто не оставлял запись к записи скачать торрент Дары смерти Дьявольские леденцы . Будь первым!

!Обратная связь