Скачать через торрент Урожай дьявола Bitter Harvest Фильм бесплатно в хорошем качестве torrent

Скачивайте на UnionPeer.org фильмы через торрент без регистрации. Новинки кино в хорошем качестве через торрент. На UnionPeer.org можно скачать через торрент фильмы 2014 и 2015 годов. Самые новые фильмы.

Скачать торрент Урожай дьявола Bitter Harvest бесплатно через .torrent фильм мультфильм сериал

Статистика раздачи
Размер:  9.13 GB   |    Зарегистрирован:  6 лет 10 месяцев   |    .torrent скачан:  87 раз   |   
Раздают:  1  
 

Скачать Урожай дьявола / Bitter Harvest (Джордж Менделюк) [2017, драма, мелодрама, военный, BDRip 1080p] через torrent

 
 
Автор Сообщение

Galfimbul

avatar Galfimbul



Урожай дьявола /Bitter Harvest

Год выхода: 2017
Жанр: драма, мелодрама, военный

Режиссер: Джордж Менделюк

В ролях: Макс Айронс, Анейрин Барнард, Барри Пеппер, Теренс Стэмп, Эмилия Фокс, Саманта Баркс, Том Остин, Тамер Хассан, Ричард Брэйк, Уильям Бек

О фильме:
История о любви, надежде и выживании на фоне политических потрясений в Украине в 1930-е годы. Юрий, потомственный казак, добивается любви прекрасной Наталки. Но его жизнь, как и жизнь многих его односельчан, круто меняется после вторжения Красной армии. Семью Юрия и многих его соотечественников начинают преследовать, сталинский террор накрывает Восточную Европу…



Страна: Канада
Продолжительность: 01:43:22
Перевод: Любительское (многоголосое) ["Синема УС"]

Файл
Кодек: x.264
Качество: BDRip 1080p
Видео: AVC, 1920x800 (2.40:1), 23.976 fps, 10.5 Mbps (0.285 bit/pixel)
Звук:
Аудио #1: AC-3, 48.0 KHz, 6 ch, 640 Kbps, CBR | RUS
Аудио #2: DTS, 48.0 KHz, 6 ch, 1509 Kbps, CBR | ENG
Субтитры: English

Общее
Уникальный идентификатор : 224975310719877077609251056390721431317 (0xA940AB34450FA794AEF10C39DB8EE715)
Полное имя : Bitter Harvest.BDRip 1080p.RUS.ENG.mkv
Формат : Matroska
Версия формата : Version 4 / Version 2
Размер файла : 9,13 Гбайт
Продолжительность : 1 ч. 43 м.
Общий поток : 12,6 Мбит/сек
Дата кодирования : UTC 2017-04-06 15:03:58
Программа кодирования : mkvmerge v8.3.0 ('Over the Horizon') 64bit
Библиотека кодирования : libebml v1.3.1 + libmatroska v1.4.2

Видео
Идентификатор : 1
Формат : AVC
Формат/Информация : Advanced Video Codec
Профиль формата : [email protected]
Параметр CABAC формата : Да
Параметр ReFrames формата : 5 кадров
Идентификатор кодека : V_MPEG4/ISO/AVC
Продолжительность : 1 ч. 43 м.
Битрейт : 10,5 Мбит/сек
Ширина : 1920 пикселей
Высота : 800 пикселей
Соотношение сторон : 2,40:1
Режим частоты кадров : Постоянный
Частота кадров : 23,976 (24000/1001) кадра/сек
Цветовое пространство : YUV
Субдискретизация насыщенности : 4:2:0
Битовая глубина : 8 бит
Тип развёртки : Прогрессивная
Бит/(Пиксели*Кадры) : 0.285
Размер потока : 7,57 Гбайт (83%)
Библиотека кодирования : x264 core 148 r2744 b97ae06
Настройки программы : cabac=1 / ref=5 / deblock=1:-2:-1 / analyse=0x3:0x133 / me=umh / subme=10 / psy=1 / psy_rd=1.00:1.50 / mixed_ref=1 / me_range=24 / chroma_me=1 / trellis=2 / 8x8dct=1 / cqm=0 / deadzone=21,11 / fast_pskip=1 / chroma_qp_offset=-4 / threads=25 / lookahead_threads=4 / sliced_threads=0 / nr=0 / decimate=0 / interlaced=0 / bluray_compat=0 / constrained_intra=0 / bframes=8 / b_pyramid=0 / b_adapt=2 / b_bias=0 / direct=3 / weightb=1 / open_gop=0 / weightp=2 / keyint=230 / keyint_min=23 / scenecut=288 / intra_refresh=0 / rc_lookahead=60 / rc=2pass / mbtree=1 / bitrate=10501 / ratetol=1.0 / qcomp=0.90 / qpmin=3 / qpmax=69 / qpstep=4 / cplxblur=20.0 / qblur=0.5 / ip_ratio=1.40 / aq=1:1.00
Язык : English
Default : Да
Forced : Нет
Цветовой диапазон : Limited
Основные цвета : BT.709
Характеристики трансфера : BT.709
Коэффициенты матрицы : BT.709

Аудио #1
Идентификатор : 2
Формат : AC-3
Формат/Информация : Audio Coding 3
Расширение режима : CM (complete main)
Параметр Endianness формата : Big
Идентификатор кодека : A_AC3
Продолжительность : 1 ч. 43 м.
Вид битрейта : Постоянный
Битрейт : 640 Кбит/сек
Каналы : 6 каналов
Расположение каналов : Front: L C R, Side: L R, LFE
Частота : 48,0 КГц
Частота кадров : 31,250 кадров/сек (1536 spf)
Битовая глубина : 16 бит
Метод сжатия : С потерями
Размер потока : 473 Мбайт (5%)
Язык : Russian
Default : Да
Forced : Нет

Аудио #2
Идентификатор : 3
Формат : DTS
Формат/Информация : Digital Theater Systems
Режим : 16
Параметр Endianness формата : Big
Идентификатор кодека : A_DTS
Продолжительность : 1 ч. 43 м.
Вид битрейта : Постоянный
Битрейт : 1509 Кбит/сек
Каналы : 6 каналов
Расположение каналов : Front: L C R, Side: L R, LFE
Частота : 48,0 КГц
Частота кадров : 93,750 кадра/сек (512 spf)
Битовая глубина : 24 бит
Метод сжатия : С потерями
Размер потока : 1,09 Гбайт (12%)
Язык : English
Default : Нет
Forced : Нет

Текст
Идентификатор : 4
Формат : PGS
Режим смешивания : zlib
Идентификатор кодека : S_HDMV/PGS
Идентификатор кодека/Информация : Picture based subtitle format used on BDs/HD-DVDs
Продолжительность : 1 ч. 33 м.
Битрейт : 12,9 Кбит/сек
Count of elements : 1377
Размер потока : 8,61 Мбайт (0%)
Язык : English
Default : Да
Forced : Нет


Внимание! AdBlock блокирует показ скриншотов, все вопросы к разработчикам )))
Трекер:  [ 06-Апр-2017 18:30 ]

  

Скачать .torrent

Размер .torrent файла 23 KB


Размер: 9.13 GB
Хэш (hash) релиза: 77e2ab4067ba2473edf816a336ddadbf81d9286e
Подписка на обновления:

Торренты, похожие на Урожай дьявола Bitter Harvest скачать торрент

Форум Название Автор Размер S L Добавлен
Зарубежные фильмы 2016-2019 (Новинки зарубежного кино) ·· Урожай дьявола / Bitter Harvest (Джордж Менделюк) [2017, драма, мелодрама, военный, HDRip] Galfimbul 14680064001.37 GB 0 0 1490636943

20:49

27-Мар-17

Еще никто не оставлял запись к записи скачать торрент Урожай дьявола Bitter Harvest . Будь первым!

!Обратная связь