Скачать через торрент Изгой-один: Звёздные войны. Истории Rogue One: A Star Wars Story Фильм бесплатно в хорошем качестве torrent

Скачивайте на UnionPeer.org фильмы через торрент без регистрации. Новинки кино в хорошем качестве через торрент. На UnionPeer.org можно скачать через торрент фильмы 2014 и 2015 годов. Самые новые фильмы.

Скачать торрент Изгой-один: Звёздные войны. Истории Rogue One: A Star Wars Story бесплатно через .torrent фильм мультфильм сериал

Статистика раздачи
Размер:  23.82 GB   |    Зарегистрирован:  6 лет 10 месяцев   |    .torrent скачан:  84 раза   |   
Раздают:  1  
   
 
Автор Сообщение

Galfimbul

avatar Galfimbul


Изгой-один: Звёздные войны. Истории / Rogue One: A Star Wars Story

Страна: США, Великобритания
Жанр: фантастика, боевик, приключения
Год выпуска: 2016
Продолжительность: 02:13:57

Перевод: Профессиональный (дублированный) Blu-Ray EUR
Cубтитры: Русские, Английские
Оригинальная аудиодорожка: английский

Режиссер: Гарет Эдвардс / Gareth Edwards

В ролях: Фелисити Джонс, Диего Луна, Алан Тьюдик, Донни Йен, Цзян Вэнь, Бен Мендельсон, Форест Уитакер, Риз Ахмед, Мадс Миккельсен, Джимми Смитс

Описание: Сопротивление собирает отряд для выполнения особой миссии — надо выкрасть чертежи самого совершенного и смертоносного оружия Империи. Возглавляет бойцов неуправляемая и бесстрашная Джин Эрсо, у которой в этом самоубийственном задании есть и личные мотивы. Не всем суждено вернуться домой, но герои готовы к этому, ведь на кону судьба Галактики.

Доп. Информация:
Рип от TayTO.

<div class="post-box">Скачать сэмпл</div>

Тип релиза: BDRip 1080p
Контейнер: MKV

Видео: MPEG-4 AVC, 21,8 Мбит/с, 1920x804, 23,976 fps
Aудио 1: Russian: 48 kHz, AC3, 3/2 (L,C,R,l,r) + LFE ch, ~640.00 kbps avg |Дубляж, Blu-ray EUR|
Aудио 2: Ukrainian: 48 kHz, DTS, 3/2 (L,C,R,l,r) + LFE ch, ~1536.00 kbps avg |Дубляж, Disney / Buena Vista|
Aудио 3: English: 48 kHz, DTS, 3/2 (L,C,R,l,r) + LFE ch, ~1536.00 kbps avg
x264 [info]: frame I:1239 Avg QP:16.01 size:240011
x264 [info]: frame P:40370 Avg QP:17.42 size:151941
x264 [info]: frame B:151093 Avg QP:18.74 size:102383
x264 [info]: consecutive B-frames: 2.1% 2.9% 6.6% 12.6% 15.8% 47.8% 7.5% 0.6% 1.4% 2.1% 0.6%



<div class="post-box">

NOTES:
This encode from Remux without hardcoded subtitles.
Special thanks to Elheym and everyone who helped me with the subtitles.
Special thanks to my friends exy0@DON for dirty lines range, Red@VietHD for chapter named.
Dirty lines were fixed with FillMargins and Balanceborders ConditionalFilter.
Source was separated into light, semi-dark, dark, high motion scenes along with various crf values on zones.
Greetings: Nick007, v0danh, BodoiCuHo, riverstore, rose, wolgone, Friday, AraGorN, NOiZE and my friends !
</div>
ОбщееУникальный идентификатор : 252802287674840703249901701651848253064 (0xBE2FF317F43173868BB1F2C0FD704E88)Полное имя : Rogue.One.A.Star.Wars.Story.2016.BDRip.1080p.Secrets.mkvФормат : MatroskaВерсия формата : Version 4 / Version 2Размер файла : 23,8 ГбайтПродолжительность : 2 ч. 13 м.Общий поток : 25,5 Мбит/секНазвание фильма : Rogue One: A Star Wars Story - Release for Rutracker.org by SecretsДата кодирования : UTC 2017-04-05 19:20:58Программа кодирования : mkvmerge v10.0.0 ('To Drown In You') 64bitБиблиотека кодирования : libebml v1.3.4 + libmatroska v1.4.5

ВидеоИдентификатор : 1Формат : AVCФормат/Информация : Advanced Video CodecПрофиль формата : [email protected]Параметр CABAC формата : ДаПараметр ReFrames формата : 5 кадровИдентификатор кодека : V_MPEG4/ISO/AVCПродолжительность : 2 ч. 13 м.Битрейт : 21,8 Мбит/секШирина : 1920 пикселейВысота : 804 пикселяСоотношение сторон : 2,40:1Режим частоты кадров : ПостоянныйЧастота кадров : 23,976 (24000/1001) кадра/секЦветовое пространство : YUVСубдискретизация насыщенности : 4:2:0Битовая глубина : 8 битТип развёртки : ПрогрессивнаяБит/(Пиксели*Кадры) : 0.589Размер потока : 20,4 Гбайт (86%)Заголовок : Rogue One: A Star Wars Story - Release for Rutracker.org by SecretsБиблиотека кодирования : x264 core 148 r2705+54 9f484c1 t_mod_Custom [8-bit@all X86_64]Настройки программы : cabac=1 / ref=5 / deblock=1:-3:-3 / analyse=0x3:0x133 / me=umh / subme=11 / psy=1 / fade_compensate=0.00 / psy_rd=1.05:0.00 / mixed_ref=1 / me_range=32 / chroma_me=1 / trellis=2 / 8x8dct=1 / cqm=0 / deadzone=21,11 / fast_pskip=0 / chroma_qp_offset=-2 / threads=12 / lookahead_threads=3 / sliced_threads=0 / nr=0 / decimate=0 / interlaced=0 / bluray_compat=0 / constrained_intra=0 / fgo=0 / bframes=10 / b_pyramid=2 / b_adapt=2 / b_bias=0 / direct=3 / weightb=1 / open_gop=0 / weightp=2 / keyint=250 / keyint_min=23 / scenecut=40 / intra_refresh=0 / rc_lookahead=60 / rc=crf / mbtree=0 / crf=18.5000 / qcomp=0.65 / qpmin=0:0:0 / qpmax=69:69:69 / qpstep=4 / vbv_maxrate=62500 / vbv_bufsize=78125 / crf_max=0.0 / nal_hrd=none / filler=0 / ip_ratio=1.30 / pb_ratio=1.20 / aq=3:0.80 / aq-sensitivity=10.00 / aq-factor=1.00:1.00:1.00 / aq2=0 / aq3=0 / zones=1940,2025,crf=18/3166,3707,crf=18/10243,10638,crf=18/11458,11655,crf=18/12800,15782,crf=18/16417,17448,crf=18/19974,20110,crf=18/25389,25514,crf=18/28855,28999,crf=18/34838,35237,crf=18/35278,35633,crf=18/37356,37519,crf=18/54507,54668,crf=18/55542,55607,crf=18/55784,55875,crf=18/67025,67216,crf=18/67448,67488,crf=18/67890,68161,crf=18/68252,68452,crf=18/69069,69427,crf=18/69664,70310,crf=18/71966,72073,crf=18/72186,72420,crf=18/72517,72564,crf=18/72632,72852,crf=18/72976,72990,crf=18/76154,76220,crf=18/76482,76740,crf=18/81020,81198,crf=18/81479,81965,crf=18/82056,82637,crf=18/82934,83156,crf=18/84549,84816,crf=18/85297,85606,crf=18/86032,87192,crf=18/87521,87876,crf=18/87940,88488,crf=18/88577,88717,crf=18/88789,90404,crf=18/90448,90941,crf=18/90985,91569,crf=18/91621,91679,crf=18/91745,93335,crf=18/93522,94117,crf=18/94443,97190,crf=18/97191,97308,crf=17.5/97343,97520,crf=18/97740,100581,crf=18/100776,101068,crf=18/101288,101500,crf=18/104764,105680,crf=18/106456,106708,crf=18/140746,140886,crf=18/141930,142087,crf=18/149983,150041,crf=18/160682,160708,crf=18/161496,161553,crf=18/163336,163362,crf=16/163591,163922,crf=18/164318,164456,crf=18/164925,165010,crf=18/173507,173722,crf=18/173976,174337,crf=18/174921,174961,crf=18/176550,176630,crf=18/178370,178411,crf=18/178605,179570,crf=17/180850,192701,crf=21Язык : EnglishDefault : ДаForced : НетЦветовой диапазон : LimitedКоэффициенты матрицы : BT.709

Аудио #1Идентификатор : 2Формат : AC-3Формат/Информация : Audio Coding 3Расширение режима : CM (complete main)Параметр Endianness формата : BigИдентификатор кодека : A_AC3Продолжительность : 2 ч. 13 м.Вид битрейта : ПостоянныйБитрейт : 640 Кбит/секКаналы : 6 каналовРасположение каналов : Front: L C R, Side: L R, LFEЧастота : 48,0 КГцЧастота кадров : 31,250 кадров/сек (1536 spf)Метод сжатия : С потерямиРазмер потока : 613 Мбайт (3%)Заголовок : Blu-Ray EURЯзык : RussianDefault : ДаForced : Нет

Аудио #2Идентификатор : 3Формат : DTSФормат/Информация : Digital Theater SystemsРежим : 16Параметр Endianness формата : BigИдентификатор кодека : A_DTSПродолжительность : 2 ч. 13 м.Вид битрейта : ПостоянныйБитрейт : 1509 Кбит/секКаналы : 6 каналовРасположение каналов : Front: L C R, Side: L R, LFEЧастота : 48,0 КГцЧастота кадров : 93,750 кадра/сек (512 spf)Битовая глубина : 24 битМетод сжатия : С потерямиРазмер потока : 1,41 Гбайт (6%)Заголовок : Disney / Buena VistaЯзык : UkrainianDefault : НетForced : Нет

Аудио #3Идентификатор : 4Формат : DTSФормат/Информация : Digital Theater SystemsРежим : 16Параметр Endianness формата : BigИдентификатор кодека : A_DTSПродолжительность : 2 ч. 13 м.Вид битрейта : ПостоянныйБитрейт : 1509 Кбит/секКаналы : 6 каналовРасположение каналов : Front: L C R, Side: L R, LFEЧастота : 48,0 КГцЧастота кадров : 93,750 кадра/сек (512 spf)Битовая глубина : 24 битМетод сжатия : С потерямиРазмер потока : 1,41 Гбайт (6%)Язык : EnglishDefault : НетForced : Нет

Текст #1Идентификатор : 5Формат : UTF-8Идентификатор кодека : S_TEXT/UTF8Идентификатор кодека/Информация : UTF-8 Plain TextПродолжительность : 25 м.Битрейт : 1 бит/секCount of elements : 9Размер потока : 318 байт (0%)Заголовок : ForcedЯзык : RussianDefault : ДаForced : Нет

Текст #2Идентификатор : 6Формат : UTF-8Идентификатор кодека : S_TEXT/UTF8Идентификатор кодека/Информация : UTF-8 Plain TextПродолжительность : 2 ч. 4 м.Битрейт : 78 бит/секCount of elements : 1507Размер потока : 71,5 Кбайт (0%)Язык : RussianDefault : НетForced : Нет

Текст #3Идентификатор : 7Формат : UTF-8Идентификатор кодека : S_TEXT/UTF8Идентификатор кодека/Информация : UTF-8 Plain TextПродолжительность : 25 м.Битрейт : 1 бит/секCount of elements : 9Размер потока : 227 байт (0%)Заголовок : ForcedЯзык : EnglishDefault : НетForced : Нет

Текст #4Идентификатор : 8Формат : UTF-8Идентификатор кодека : S_TEXT/UTF8Идентификатор кодека/Информация : UTF-8 Plain TextПродолжительность : 2 ч. 4 м.Битрейт : 48 бит/секCount of elements : 1572Размер потока : 44,2 Кбайт (0%)Язык : EnglishDefault : НетForced : Нет

Текст #5Идентификатор : 9Формат : UTF-8Идентификатор кодека : S_TEXT/UTF8Идентификатор кодека/Информация : UTF-8 Plain TextПродолжительность : 2 ч. 5 м.Битрейт : 54 бит/секCount of elements : 1830Размер потока : 50,2 Кбайт (0%)Заголовок : SDHЯзык : EnglishDefault : НетForced : Нет

Текст #6Идентификатор : 10Формат : UTF-8Идентификатор кодека : S_TEXT/UTF8Идентификатор кодека/Информация : UTF-8 Plain TextПродолжительность : 2 ч. 5 м.Битрейт : 68 бит/секCount of elements : 1830Размер потока : 62,5 Кбайт (0%)Заголовок : SDH-ColoredЯзык : EnglishDefault : НетForced : Нет

Меню00:00:00.000 : en:"He's Come For Us"00:02:34.654 : en:Unfinished Business00:07:46.466 : en:Jyn In Prison00:08:42.814 : en:Ring Of Kafren00:11:04.622 : en:An Urgent Message00:12:21.199 : en:Wobani Prison Break00:13:41.154 : en:Rebel Interrogation00:17:19.914 : en:Mission Departure00:20:09.542 : en:Saw Gerrera00:21:54.772 : en:Krennic And Tarkin00:23:47.092 : en:Jyn's Dream00:24:31.386 : en:Scouting Jedha City00:26:53.445 : en:Bor Gullet00:27:46.623 : en:Guardians Of The Whills00:30:37.294 : en:Holy City Ambush00:33:53.406 : en:"Let Them Pass"00:37:11.271 : en:Saw's Catacombs00:42:30.089 : en:Galen's Message00:47:16.125 : en:Jedha Escape00:51:04.144 : en:Tarkin Commands00:52:23.724 : en:Race To Eadu00:55:53.266 : en:Eadu Crash00:59:48.251 : en:Scouting Eadu01:02:07.807 : en:Krennic And Galen01:05:25.505 : en:Attack On Eadu01:10:24.095 : en:Eadu Aftermath01:12:49.532 : en:Mustafar01:16:28.459 : en:Jyn Before The Council01:19:04.323 : en:"May The Force Be With Us"01:21:55.160 : en:Rogue One Launches01:23:25.667 : en:Scarif Gate01:25:58.987 : en:10 Men Like 10001:27:34.958 : en:Imperial Inspection01:29:57.308 : en:Ground Forces01:31:53.841 : en:The Battle Begins01:34:18.736 : en:Scrambling The Rebel Fleet01:36:07.512 : en:Sowing Confusion01:37:48.237 : en:Rebel Reinforcements01:40:27.605 : en:Beach Battle01:42:44.074 : en:Master Switch01:45:26.779 : en:Stardust01:47:55.010 : en:Data Vault01:50:31.416 : en:Sacrifices01:53:28.885 : en:"We Have The Plans"01:55:46.272 : en:Final Confrontation01:59:23.448 : en:Transmission Received02:01:11.347 : en:Fire When Ready02:03:15.596 : en:Hope02:05:42.118 : en:End Credits


Внимание! AdBlock блокирует показ скриншотов, все вопросы к разработчикам )))
Трекер:  [ 06-Апр-2017 18:00 ]

  

Скачать .torrent

Размер .torrent файла 60 KB


Размер: 23.82 GB
Хэш (hash) релиза: 30bdadeff673e4d2d6360f753a572b06d01a51b1
Подписка на обновления:

Торренты, похожие на Изгой-один: Звёздные войны. Истории Rogue One: A Star Wars Story скачать торрент

Форум Название Автор Размер S L Добавлен
Трейлеры и дополнительные материалы ·· Изгой-Один. Звёздные Войны: Истории / Rogue One: A Star Wars Story (Гарет Эдвардс / Gareth Edwards) [2016, США, фантастика, фэнтези, боевик, DCPRip 2k] [Hi10P, Hi444PP] Трейлер A, D, F Galfimbul 14964803461.39 GB 0 0 1481568378

21:46

12-Дек-16

Зарубежные фильмы 2016-2019 (Новинки зарубежного кино) ·%· Изгой-один: Звёздные войны. Истории / Rogue One: A Star Wars Story (2016) BDRip 1080p от New-Team & qqss44 | Локализованная версия | Лицензия Galfimbul 106914265479.96 GB 0 0 1586407810

07:50

9-Апр-20

Зарубежные фильмы 2016-2019 (Новинки зарубежного кино) ·%· Изгой-один: Звёздные войны. Истории / Rogue One: A Star Wars Story (2016) UHD BDRemux 2160p от селезень | 4K | HDR | Лицензия Galfimbul 5245491611848.85 GB 0 0 1585697411

02:30

1-Апр-20

Зарубежные фильмы 2016-2019 (Новинки зарубежного кино) ·· Изгой-один: Звёздные войны. Истории / Rogue One: A Star Wars Story (Гарет Эдвардс / Gareth Edwards) [2016, США, Фантастика, боевик, приключения, BDRip] [Локализованный видеоряд] AVO (Андрей Гаврилов) Galfimbul 23381258242.18 GB 0 0 1520177411

18:30

4-Мар-18

Зарубежные фильмы 2016-2019 (Новинки зарубежного кино) ·· Изгой-один: Звёздные войны. Истории / Rogue One: A Star Wars Story (Гарет Эдвардс / Gareth Edwards) [2016, США, Великобритания, фантастика, боевик, приключения, BDRip] [Локализованный видеоряд] AVO (Сербин) + AVO (Живов) Galfimbul 23446036482.18 GB 0 0 1508266885

22:01

17-Окт-17

Трейлеры и дополнительные материалы ·· Изгой-Один: Звёздные Войны. Истории / Rogue One: A Star Wars Story (Гарет Эдвардс / Gareth Edwards) [2016, Фантастика | Боевик | Приключения, BDRip] дополнительные материалы VO (innokent33) & RUS Subs Galfimbul 606770104579 MB 0 0 1496484468

13:07

3-Июн-17

Трейлеры и дополнительные материалы ·· Изгой-один: Звёздные войны. Истории / Rogue One: A Star Wars Story (Гарет Эдвардс) [2016, Документальный, BDRemux] бонус диск, дополнительные материалы Galfimbul 1847465191317.21 GB 0 0 1495497077

02:51

23-Май-17

Трейлеры и дополнительные материалы ·· Изгой-Один: Звёздные Войны. Истории / Rogue One: A Star Wars Story (Гарет Эдвардс / Gareth Edwards) [2016, Фантастика | Боевик | Приключения, BDRip 720p] дополнительные материалы Galfimbul 23817843822.22 GB 0 0 1495367676

14:54

21-Май-17

Зарубежные фильмы до 2016 ·· Изгой-один: Звёздные войны. Истории / Rogue One: A Star Wars Story (Гарет Эдвардс / Gareth Edwards) [2016, США, Великобритания, фантастика, боевик, приключения, BDRemux 1080p] [Локализованный видеоряд] Dub + VO + Original (Eng) + Sub (Rus, Eng) Galfimbul 4022008169137.46 GB 0 0 1493432798

05:26

29-Апр-17

Зарубежные фильмы до 2016 ·· Изгой-один: Звёздные войны. Истории / Rogue One: A Star Wars Story (Гарет Эдвардс / Gareth Edwards) [2016, США, Великобритания, Фантастика, боевик, приключения, BDRip 1080p] [Локализованный видеоряд] Dub + VO + Sub Rus, Eng + Original Eng Galfimbul 2541337536823.67 GB 0 0 1493432790

05:26

29-Апр-17

Зарубежные фильмы 2016-2019 (Новинки зарубежного кино) ·· Изгой-один: Звёздные войны. Истории / Rogue One: A Star Wars Story (Гарет Эдвардс / Gareth Edwards) [2016, США, Великобритания, Фантастика, боевик, приключения, BDRip-AVC] [Локализованный видеоряд] Dub + Sub Rus, Eng + Original Eng Galfimbul 45383500034.23 GB 0 0 1492868028

16:33

22-Апр-17

Зарубежные фильмы 2016-2019 (Новинки зарубежного кино) ·· Изгой-один: Звёздные войны. Истории / Rogue One: A Star Wars Story (Гарет Эдвардс / Gareth Edwards) [2016, США, Фантастика, боевик, приключения, BDRip-AVC] [Локализованный видеоряд] Dub Galfimbul 15715057421.46 GB 0 0 1492677206

11:33

20-Апр-17

Зарубежные фильмы 2016-2019 (Новинки зарубежного кино) ·· Изгой-один: Звёздные войны. Истории / Rogue One: A Star Wars Story (Гарет Эдвардс / Gareth Edwards) [2016, США, Фантастика, боевик, приключения, BDRip] [Локализованный видеоряд] Dub Galfimbul 23381217282.18 GB 0 0 1492677201

11:33

20-Апр-17

Зарубежные фильмы до 2016 ·· Изгой-один: Звёздные войны. Истории / Rogue One: A Star Wars Story (Гарет Эдвардс / Gareth Edwards) [2016, США, Великобритания, фантастика, боевик, приключения, Blu-Ray>DVD5(Custom)] DUB+Eng+Sub Rus, Eng Galfimbul 46928220164.37 GB 0 0 1491591231

21:53

7-Апр-17

Зарубежные фильмы 2016-2019 (Новинки зарубежного кино) ·· Изгой-один: Звёздные войны. Истории / Rogue One: A Star Wars Story (Гарет Эдвардс / Gareth Edwards) [2016, США, Фантастика, боевик, приключения, BDRip] [Локализованная версия] Dub Galfimbul 15684090961.46 GB 0 0 1491588061

21:01

7-Апр-17

Зарубежные фильмы до 2016 ·· Изгой-один: Звёздные войны. Истории / Rogue One: A Star Wars Story (Гарет Эдвардс / Gareth Edwards) [2016, США, Великобритания, фантастика, боевик, приключения, Blu-Ray>DVD9(Custom)] DUB+Eng+Sub Rus, Eng Galfimbul 84751114247.89 GB 0 0 1491499706

20:28

6-Апр-17

Зарубежные фильмы до 2016 ·· Изгой-один: Звёздные войны. Истории / Rogue One: A Star Wars Story (Гарет Эдвардс / Gareth Edwards) [2016, США, фантастика, боевик, приключения, BDRip 720p] Dub (iTunes) + VO (Solod) + Original (Eng) + Sub (Eng) Galfimbul 104309496919.71 GB 0 0 1491478124

14:28

6-Апр-17

Зарубежные фильмы до 2016 ·· Изгой-один: Звёздные войны. Истории / Rogue One: A Star Wars Story (Гарет Эдвардс / Gareth Edwards) [2016, США, Великобритания, фантастика, боевик, приключения, Blu-ray disc 1080p] [EUR] Dub + Sub Rus, Eng + Original Eng Galfimbul 4683612470043.62 GB 0 0 1491401040

17:04

5-Апр-17

Зарубежные фильмы 2016-2019 (Новинки зарубежного кино) ·· Изгой-Один. Звёздные Войны: Истории / Rogue One: A Star Wars Story (Гарет Эдвардс / Gareth Edwards) [2016, США, фантастика, фэнтези, боевик, BDRip 720p] Лицензия Galfimbul 1297005397612.08 GB 0 0 1491387127

13:12

5-Апр-17

Еще никто не оставлял запись к записи скачать торрент Изгой-один: Звёздные войны. Истории Rogue One: A Star Wars Story . Будь первым!

!Обратная связь