Скачать через торрент Бессонная ночь Sleepless Фильм бесплатно в хорошем качестве torrent

Скачивайте на UnionPeer.org фильмы через торрент без регистрации. Новинки кино в хорошем качестве через торрент. На UnionPeer.org можно скачать через торрент фильмы 2014 и 2015 годов. Самые новые фильмы.

Скачать торрент Бессонная ночь Sleepless бесплатно через .torrent фильм мультфильм сериал

Статистика раздачи
Размер:  1.46 GB   |    Зарегистрирован:  6 лет 10 месяцев   |    .torrent скачан:  169 раз   |   
Раздают:  1  
 

Скачать Бессонная ночь / Sleepless (Баран бо Одар / Baran bo Odar) [2017, США, Боевик, триллер, HDRip] MVO + Original (Eng) через torrent

 
 
Автор Сообщение

Galfimbul

avatar Galfimbul


Бессонная ночь / Sleepless
Год выпуска: 2017
Выпущено: США / FilmNation Entertainment
Жанр: боевик, триллер
Продолжительность: 01:35:12
Перевод: Любительский (многоголосый закадровый) Paradox&Omskbird Records - ненормативная лексика
Cубтитры
: нет
Оригинальная аудиодорожка: Английская
Режиссер:
Баран бо Одар / Baran bo Odar
В ролях:
Мишель Монахэн, Гэбриэл Юнион, Дермот Малруни, Джейми Фокс, Скут МакНэри, Дэвид Харбор, Ти-Ай, Вероника МакКласки, Октавиус Дж. Джонсон, Тим Коннолли
Описание:
Коп со связями в преступном мире устраивает облаву в ночном клубе в поисках своего похищенного сына.
Релиз групп | | IMDB | КиноПоиск | Сэмпл |
Качество: HDRip [Sleepless 2017 720p BluRay DTS x264-HDChina]
Формат: AVI

Видео: 720x304 (2.37:1), 23.976 fps, XviD build 67 ~1796 kbps avg, 0.34 bit/pixel
Аудио #1: 48 kHz, AC3 Dolby Digital, 2/0 (L,R) ch, ~192.00 kbps avg (MVO)
Аудио #2: 48 kHz, AC3 Dolby Digital, 2/0 (L,R) ch, ~192.00 kbps avg (ENG)
Общее
Полное имя                               : D:\Bessonnaya_noch`_2017_HDRip_MVO_by_Dalemake.avi
Формат                                   : AVI
Формат/Информация                        : Audio Video Interleave
Размер файла                             : 1,46 Гбайт
Продолжительность                        : 1 ч. 35 м.
Общий поток                              : 2195 Кбит/сек
Программа кодирования                    : VirtualDubMod 1.5.10.3 | www.virtualdub-fr.org || (build 2550/release)
Библиотека кодирования                   : VirtualDubMod build 2550/release

Видео
Идентификатор                            : 0
Формат                                   : MPEG-4 Visual
Профиль формата                          : Advanced Simple@L5
Параметр BVOP формата                    : 1
Параметр QPel формата                    : Нет
Параметр GMC формата                     : Без точки перехода
Параметр матрицы формата                 : Выборочная
Идентификатор кодека                     : XVID
Идентификатор кодека/Подсказка           : XviD
Продолжительность                        : 1 ч. 35 м.
Битрейт                                  : 1797 Кбит/сек
Ширина                                   : 720 пикселей
Высота                                   : 304 пикселя
Соотношение сторон                       : 2,35:1
Частота кадров                           : 23,976 кадра/сек
Цветовое пространство                    : YUV
Субдискретизация насыщенности            : 4:2:0
Битовая глубина                          : 8 бит
Тип развёртки                            : Прогрессивная
Метод сжатия                             : С потерями
Бит/(Пиксели*Кадры)                      : 0.342
Размер потока                            : 1,19 Гбайт (82%)
Библиотека кодирования                   : XviD 67

Аудио #1
Идентификатор                            : 1
Формат                                   : AC-3
Формат/Информация                        : Audio Coding 3
Расширение режима                        : CM (complete main)
Параметр Endianness формата              : Big
Идентификатор кодека                     : 2000
Продолжительность                        : 1 ч. 35 м.
Вид битрейта                             : Постоянный
Битрейт                                  : 192 Кбит/сек
Каналы                                   : 2 канала
Расположение каналов                     : Front: L R
Частота                                  : 48,0 КГц
Битовая глубина                          : 16 бит
Метод сжатия                             : С потерями
Размер потока                            : 131 Мбайт (9%)
Выравнивание                             : Разделение по промежуткам
Продолжительность промежутка             : 42  мс. (1,00 видеокадр)
Время предзагрузки промежутка            : 500  мс.

Аудио #2
Идентификатор                            : 2
Формат                                   : AC-3
Формат/Информация                        : Audio Coding 3
Расширение режима                        : CM (complete main)
Параметр Endianness формата              : Big
Идентификатор кодека                     : 2000
Продолжительность                        : 1 ч. 35 м.
Вид битрейта                             : Постоянный
Битрейт                                  : 192 Кбит/сек
Каналы                                   : 2 канала
Расположение каналов                     : Front: L R
Частота                                  : 48,0 КГц
Битовая глубина                          : 16 бит
Метод сжатия                             : С потерями
Размер потока                            : 131 Мбайт (9%)
Выравнивание                             : Разделение по промежуткам
Продолжительность промежутка             : 42  мс. (1,00 видеокадр)
Время предзагрузки промежутка            : 500  мс.



Внимание! AdBlock блокирует показ скриншотов, все вопросы к разработчикам )))
Трекер:  [ 09-Апр-2017 19:00 ]

  

Скачать .torrent

Размер .torrent файла 15 KB


Размер: 1.46 GB
Хэш (hash) релиза: 726bd8ae0f9cf97f0430599be5199b48addcbfa9
Подписка на обновления:

Торренты, похожие на Бессонная ночь Sleepless скачать торрент

Форум Название Автор Размер S L Добавлен
Зарубежные фильмы 2016-2019 (Новинки зарубежного кино) ·· Бессонная ночь / Sleepless (Баран бо Одар) [2017, боевик, Триллер, HDRip] Galfimbul 15645102081.46 GB 0 0 1491657188

16:13

8-Апр-17

Зарубежные фильмы 2016-2019 (Новинки зарубежного кино) ·· Бессонная ночь / Sleepless (Баран бо Одар) [2017, боевик, Триллер, BDRip 1080p] Galfimbul 83136387907.74 GB 0 0 1491657180

16:13

8-Апр-17

Зарубежные фильмы 2016-2019 (Новинки зарубежного кино) ·· Бессонная ночь / Sleepless (Баран бо Одар) [2017, боевик, Триллер, BDRip 720p] Galfimbul 44469370374.14 GB 0 0 1491657172

16:12

8-Апр-17

Зарубежные фильмы 2016-2019 (Новинки зарубежного кино) ·· Бессонная ночь / Sleepless (Баран бо Одар) [2017, боевик, Триллер, WEB-DL 720p] Paradox & Omskbird records Galfimbul 24484904202.28 GB 0 0 1491540068

07:41

7-Апр-17

Зарубежные фильмы 2016-2019 (Новинки зарубежного кино) ·· Бессонная ночь / Sleepless (Баран бо Одар) [2017, боевик, Триллер, WEB-DL 1080p] Paradox & Omskbird records Galfimbul 33267742143.1 GB 0 0 1491540062

07:41

7-Апр-17

Зарубежные фильмы 2016-2019 (Новинки зарубежного кино) ·· Бессонная ночь / Sleepless (Баран бо Одар) [2017, боевик, Триллер, WEB-DLRip 1080p] Galfimbul 38873085363.62 GB 0 0 1491504327

21:45

6-Апр-17

Зарубежные фильмы 2016-2019 (Новинки зарубежного кино) ·· Бессонная ночь / Sleepless (Баран бо Одар) [2017, боевик, Триллер, WEB-DL 1080p] Galfimbul 38146224063.55 GB 0 0 1491493579

18:46

6-Апр-17

Зарубежные фильмы 2016-2019 (Новинки зарубежного кино) ·· Бессонная ночь / Sleepless (Баран бо Одар) [2017, боевик, Триллер, WEB-DLRip] Galfimbul 14674329601.37 GB 0 0 1491383509

12:11

5-Апр-17

Еще никто не оставлял запись к записи скачать торрент Бессонная ночь Sleepless . Будь первым!

!Обратная связь