Скачать через торрент 1898. Последние на Филиппинах 1898. Los ultimos de Filipinas Фильм бесплатно в хорошем качестве torrent

Скачивайте на UnionPeer.org фильмы через торрент без регистрации. Новинки кино в хорошем качестве через торрент. На UnionPeer.org можно скачать через торрент фильмы 2014 и 2015 годов. Самые новые фильмы.

Скачать торрент 1898. Последние на Филиппинах 1898. Los ultimos de Filipinas бесплатно через .torrent фильм мультфильм сериал

Статистика раздачи
Размер:  2.09 GB   |    Зарегистрирован:  6 лет 10 месяцев   |    .torrent скачан:  87 раз   |   
Раздают:  1  
 

Скачать 1898. Последние на Филиппинах / 1898. Los ultimos de Filipinas (Сальвадор Калво / Salvador Calvo) [2016, Испания, военный, история, драма, HDRip] Sub Rus + Original Spa через torrent

 
 
Автор Сообщение

Galfimbul

avatar Galfimbul


1898. Последние на Филиппинах / 1898. Los ultimos de Filipinas
Страна: Испания
Жанр: военный, история, драма
Год выпуска: 2016
Продолжительность: 02:09:28

Перевод: Субтитры Ольга Соколова, Ирина Храмова (Группа "Мир испанских сериалов")
Cубтитры: русские
Оригинальная аудиодорожка: испанский

Режиссер: Сальвадор Калво / Salvador Calvo

В ролях: Луис Тосар, Хавьер Гутьеррес, Альваро Сервантес, Патрик Криаду, Карра Элехальде, Карлос Иполито, Рикардо Гомес, Эдуард Фернандес, Эмилио Паласиос

Описание: Главные герои фильма - испанские солдаты, отправленные защищать одну из последних колоний былой империи на Филиппинах. О небольшом отряде забыли на родине, однако они смогли выдержать натиск врага в городке Балер на протяжении одиннадцати месяцев с июля 1898 года по июнь 1899 года.

Сэмпл: http://multi-up.com/1149305

Качество видео: HDRip (исходник MicroHD, 720p)
Формат видео: AVI

Видео: 720x304 (2.37:1), 24.000 fps, XviD build 67 ~1850 kbps avg, 0.35 bit/pixel
Аудио: 48 kHz, AC3 Dolby Digital, 3/2 (L,C,R,l,r) + LFE ch, ~448 kbps
Формат субтитров: softsub (SRT)
Формат : AVI
Формат/Информация : Audio Video Interleave
Профиль формата : OpenDML
Размер файла : 2,08 Гбайт
Продолжительность : 2 ч. 9 м.
Общий поток : 2305 Кбит/сек
Программа кодирования : VirtualDubMod 1.5.10.2 (build 2540/release)
Библиотека кодирования : VirtualDubMod build 2540/release

Видео
Идентификатор : 0
Формат : MPEG-4 Visual
Профиль формата : Advanced Simple@L5
Параметр BVOP формата : 2
Параметр QPel формата : Нет
Параметр GMC формата : Без точки перехода
Параметр матрицы формата : Default (MPEG)
Идентификатор кодека : XVID
Идентификатор кодека/Подсказка : XviD
Продолжительность : 2 ч. 9 м.
Битрейт : 1845 Кбит/сек
Ширина : 720 пикселей
Высота : 304 пикселя
Соотношение сторон : 2,35:1
Частота кадров : 24,000 кадра/сек
Цветовое пространство : YUV
Субдискретизация насыщенности : 4:2:0
Битовая глубина : 8 бит
Тип развёртки : Прогрессивная
Метод сжатия : С потерями
Бит/(Пиксели*Кадры) : 0.351
Размер потока : 1,67 Гбайт (80%)
Библиотека кодирования : XviD 67

Аудио
Идентификатор : 1
Формат : AC-3
Формат/Информация : Audio Coding 3
Расширение режима : CM (complete main)
Параметр Endianness формата : Big
Идентификатор кодека : 2000
Продолжительность : 2 ч. 9 м.
Вид битрейта : Постоянный
Битрейт : 448 Кбит/сек
Каналы : 6 каналов
Расположение каналов : Front: L C R, Side: L R, LFE
Частота : 48,0 КГц
Частота кадров : 31,250 кадров/сек (1536 spf)
Метод сжатия : С потерями
Размер потока : 415 Мбайт (19%)
Выравнивание : Разделение по промежуткам
Продолжительность промежутка : 42 мс. (1,00 видеокадр)
Время предзагрузки промежутка : 500 мс.
[i]5
00:01:06,410 --> 00:01:09,870
Впервые я услышал о Балере,
когда мне было 20 лет.

7
00:01:14,290 --> 00:01:15,750
к северу от Манилы,

8
00:01:16,870 --> 00:01:20,660
проклятое место,
окружённое морем и джунглями,

9
00:01:21,200 --> 00:01:24,580
населённое кровожадными повстанцами,
ненавидящими Испанию.

10
00:01:29,250 --> 00:01:31,080
Однажды ночью,

11
00:01:31,250 --> 00:01:33,950
в октябре 1897 года,

12
00:01:35,200 --> 00:01:39,080
отряд, защищавший городок,
был беспощадно вырезан.

13
00:01:49,410 --> 00:01:50,790
Был ужас...

14
00:01:52,000 --> 00:01:53,660
Лейтенант!

15
00:01:54,950 --> 00:01:56,410
Отчаяние,

16
00:01:59,200 --> 00:02:00,250
хаос.

17
00:02:11,700 --> 00:02:13,410
Это был позор.

18
00:02:16,120 --> 00:02:19,410
Из пятидесяти солдат
выжили только тринадцать.

19
00:02:27,040 --> 00:02:29,250
Они сражались за свою свободу,

20
00:02:31,330 --> 00:02:33,700
мы за выживание империи.

21
00:02:48,000 --> 00:02:49,330
И мы проиграли.

22
00:03:35,500 --> 00:03:38,370
Тремя месяцами позже,
я был отправлен со следующим отрядом.

23
00:03:40,160 --> 00:03:42,750
Нашей задачей было вернуть
этот проклятый город

24
00:03:43,790 --> 00:03:45,450
и величие Испании.

25
00:03:47,330 --> 00:03:49,040
Я тогда ещё не знал об этом,

26
00:03:49,200 --> 00:03:52,620
но нам было суждено стать
последними защитниками империи,

27
00:03:55,000 --> 00:03:57,290
последними на Филиппинах.

Огромное спасибо Ольге Соколовой и Ирине Храмовой
из Группы "Мир испанских сериалов" за перевод!

Внимание! AdBlock блокирует показ скриншотов, все вопросы к разработчикам )))
Трекер:  [ 09-Апр-2017 19:00 ]

  

Скачать .torrent

Размер .torrent файла 11 KB


Размер: 2.09 GB
Хэш (hash) релиза: 5cf00928f4d77ca0b3141aff60fa1eaa2560b65b
Подписка на обновления:

Еще никто не оставлял запись к записи скачать торрент 1898. Последние на Филиппинах 1898. Los ultimos de Filipinas . Будь первым!

!Обратная связь