Скачать через торрент Тишина Chinmoku Фильм бесплатно в хорошем качестве torrent

Скачивайте на UnionPeer.org фильмы через торрент без регистрации. Новинки кино в хорошем качестве через торрент. На UnionPeer.org можно скачать через торрент фильмы 2014 и 2015 годов. Самые новые фильмы.

Скачать торрент Тишина Chinmoku бесплатно через .torrent фильм мультфильм сериал

Статистика раздачи
Размер:  1.41 GB   |    Зарегистрирован:  6 лет 10 месяцев   |    .torrent скачан:  33 раза   |   
Раздают:  1  
 

Скачать Тишина / Chinmoku / Молчание / Silence (Масахиро Синода / Masahiro Shinoda) [1971, Япония, драма, история, DVDRip] VO (Олег Воротилин) через torrent

 
 
Автор Сообщение

Galfimbul

avatar Galfimbul


Тишина / Chinmoku / Молчание / Silence

Страна: Япония
Жанр: драма, история
Год выпуска: 1971
Продолжительность: 02:10:16

Перевод: Одноголосый закадровый Олег Воротилин
Cубтитры: нет
Оригинальная аудиодорожка: нет

Режиссер: Масахиро Синода / Masahiro Shinoda

В ролях: Шима Ивашита, Йоши Като, Дон Кенни, David Lampson, Мако, Noboru Matsuhashi, Тэцуро Тамба

Описание: В XVI веке двое португальских священников прибывают в Японию. Их цель - разыскать христианские общины, подвергающиеся гонениям, и восстановить влияние церкви в этой стране. Фильм рассказывает о невзгодах и испытаниях, выпавших на их долю.

Сэмпл: https://yadi.sk/i/vzPlroa93Gu3wy

Качество видео: DVDRip
Формат видео: AVI

Видео: XviD, 640x480, 1407 kbps, 23,976 fps, 0.19 b/p
Аудио: MP3, 48000 Hz, 2-channel, 128 kbps
Общее
Полное имя : K:\Видео\Тишина\Tishina_[torrents.ru].avi
Формат : AVI
Формат/Информация : Audio Video Interleave
Размер файла : 1,41 Гбайт
Продолжительность : 2 ч. 10 м.
Общий поток : 1544 Кбит/сек
Библиотека кодирования : VirtualDub build 35491/release

Видео
Идентификатор : 0
Формат : MPEG-4 Visual
Профиль формата : Advanced Simple@L5
Параметр BVOP формата : 1
Параметр QPel формата : Нет
Параметр GMC формата : Без точки перехода
Параметр матрицы формата : Default (H.263)
Идентификатор кодека : XVID
Идентификатор кодека/Подсказка : XviD
Продолжительность : 2 ч. 10 м.
Битрейт : 1407 Кбит/сек
Ширина : 640 пикселей
Высота : 480 пикселей
Соотношение сторон : 4:3
Частота кадров : 23,976 (24000/1001) кадра/сек
Цветовое пространство : YUV
Субдискретизация насыщенности : 4:2:0
Битовая глубина : 8 бит
Тип развёртки : Прогрессивная
Метод сжатия : С потерями
Бит/(Пиксели*Кадры) : 0.191
Размер потока : 1,28 Гбайт (91%)
Библиотека кодирования : XviD 1.2.1 (UTC 2008-12-04)

Аудио
Идентификатор : 1
Формат : MPEG Audio
Версия формата : Version 1
Профиль формата : Layer 3
Режим : Joint stereo
Расширение режима : MS Stereo
Идентификатор кодека : 55
Идентификатор кодека/Подсказка : MP3
Продолжительность : 2 ч. 10 м.
Вид битрейта : Постоянный
Битрейт : 128 Кбит/сек
Каналы : 2 канала
Частота : 48,0 КГц
Метод сжатия : С потерями
Размер потока : 119 Мбайт (8%)
Выравнивание : Соединение по промежуткам
Продолжительность промежутка : 42 мс. (1,00 видеокадр)
Время предзагрузки промежутка : 504 мс.
Видео ряд взят из этой раздачи:
...2521821


Внимание! AdBlock блокирует показ скриншотов, все вопросы к разработчикам )))
Трекер:  [ 13-Апр-2017 07:00 ]

  

Скачать .torrent

Размер .torrent файла 14 KB


Размер: 1.41 GB
Хэш (hash) релиза: 0c3d0ba19bf3bc1c36006250257b2d8a26711ada
Подписка на обновления:

Торренты, похожие на Тишина Chinmoku скачать торрент

Форум Название Автор Размер S L Добавлен
Азиатские фильмы ·· Тишина / Chinmoku / Молчание / Silence (Масахиро Синода / Masahiro Shinoda) [1971, Япония, драма, исторический, DVDRip] VO (Олег Воротилин) + Sub Rus, Eng + original Jap Galfimbul 23463280852.19 GB 0 0 1496585781

17:16

4-Июн-17

Еще никто не оставлял запись к записи скачать торрент Тишина Chinmoku . Будь первым!

!Обратная связь