Скачать через торрент Последний ансамбль в Ливане The Last Band in Lebanon Фильм бесплатно в хорошем качестве torrent

Скачивайте на UnionPeer.org фильмы через торрент без регистрации. Новинки кино в хорошем качестве через торрент. На UnionPeer.org можно скачать через торрент фильмы 2014 и 2015 годов. Самые новые фильмы.

Скачать торрент Последний ансамбль в Ливане The Last Band in Lebanon бесплатно через .torrent фильм мультфильм сериал

Статистика раздачи
Размер:  702 MB   |    Зарегистрирован:  6 лет 10 месяцев   |    .torrent скачан:  91 раз   |   
Раздают:  1  
 

Скачать Последний ансамбль в Ливане / The Last Band in Lebanon (Бен Бачар / Ben Bachar, Ицик Кричели / Itzik Kricheli) [2016, Израиль, комедия, HDTVRip] Sub Rus, Heb + Original Heb через torrent

 
 
Автор Сообщение

Galfimbul

avatar Galfimbul


Последний ансамбль в Ливане / The Last Band in Lebanon

Страна: Израиль
Жанр: комедия
Год выпуска: 2016
Продолжительность: 01:37:45

Перевод: Субтитры
Cубтитры: русские (softsub, ASS), иврит (hardsub)
Оригинальная аудиодорожка: иврит

Режиссер: Бен Бачар, Ицик Кричели / Ben Bachar, Itzik Kricheli

В ролях: Офер Хайун, Ори Лайзероувич, Офер Шехтер, Даниэль Галь, Дана Фридер, Ами Аниджар, Салим Дау, Джордж Искандар, Израэль Каторза, Руди Саада, Хишам Сулиман

Описание: Трое солдат, музыкантов армейского ансамбля, на следующее утро после выступления с концертом на израильской военной базе в Ливане обнаруживают, что остались на вражеской территории одни.

Доп. информация: КиноПоиск, IMDb

Сэмпл: http://www.mediafire.com/file/cqyn1d2j2a7sb60/Sample_The.Last.Band.in.Lebanon.avi

Качество видео: HDTVRip
Формат видео: AVI

Видео: XviD 624х352 16:9 25 кадров/сек 861 Кбит/сек
Аудио: MP3 48 КГц 2 канала 128 Кбит/сек
Формат субтитров: softsub (ASS)
Dialogue: 0,0:03:38.50,0:03:41.08,Default,,0,0,0,,Может, они выехали на учения?
Dialogue: 0,0:03:45.14,0:03:47.09,Default,,0,0,0,,Сколько времени, ты думаешь, займут учения?
Dialogue: 0,0:03:47.10,0:03:49.73,Default,,0,0,0,,Сколько можно готовить яичницу?\NЯ умираю, хочу курить уже.
Dialogue: 0,0:03:49.74,0:03:52.81,Default,,0,0,0,,Может, уже перестанешь кричать на всю базу,\Nчто ты хочешь курить?
Dialogue: 0,0:03:52.91,0:03:54.16,Default,,0,0,0,,Сигареты!
Dialogue: 0,0:03:54.22,0:03:57.41,Default,,0,0,0,,Я имел в виду сигареты!
Dialogue: 0,0:03:57.42,0:04:00.05,Default,,0,0,0,,В самом деле, я имел в виду сигареты.
Dialogue: 0,0:04:00.06,0:04:01.81,Default,,0,0,0,,Скажи, если бы они выехали на учения,
Dialogue: 0,0:04:01.82,0:04:04.81,Default,,0,0,0,,не оставили бы здесь караульного?
Dialogue: 0,0:04:04.82,0:04:05.90,Default,,0,0,0,,Я не верю!
Dialogue: 0,0:04:06.00,0:04:07.16,Default,,0,0,0,,Что?
Dialogue: 0,0:04:07.26,0:04:08.85,Default,,0,0,0,,Не порезал помидор?
Dialogue: 0,0:04:08.86,0:04:12.65,Default,,0,0,0,,Еле нашёл яйца. Эти боевые живут, как нищие.
Dialogue: 0,0:04:12.66,0:04:15.21,Default,,0,0,0,,Слышал это?
Dialogue: 0,0:04:15.22,0:04:18.04,Default,,0,0,0,,- Что ты сказал?\N- Был звук такой...
Dialogue: 0,0:04:18.14,0:04:19.67,Default,,0,0,0,,Такой.
Dialogue: 0,0:04:19.98,0:04:22.33,Default,,0,0,0,,Ладно... Может это - караульный.
Dialogue: 0,0:04:23.28,0:04:25.27,Default,,0,0,0,,"Склад оружия"
Dialogue: 0,0:04:27.39,0:04:28.59,Default,,0,0,0,,Шломи...
Dialogue: 0,0:04:58.22,0:04:59.82,Default,,0,0,0,,Что?
Dialogue: 0,0:04:59.90,0:05:04.90,Default,,0,0,0,,Тебя не взяли на учения?
Общее
Полное имя : The Last Band in Lebanon.avi
Формат : AVI
Формат/Информация : Audio Video Interleave
Размер файла : 702 Мбайт
Продолжительность : 1 ч. 37 м.
Режим общего битрейта : Переменный
Общий поток : 1004 Кбит/сек
Программа кодирования : VirtualDubMod 1.5.10.2 (build 2540/release)
Библиотека кодирования : VirtualDubMod build 2540/release

Видео
Идентификатор : 0
Формат : MPEG-4 Visual
Профиль формата : Advanced Simple@L5
Параметр BVOP формата : 2
Параметр QPel формата : Нет
Параметр GMC формата : Без точки перехода
Параметр матрицы формата : Default (H.263)
Идентификатор кодека : XVID
Идентификатор кодека/Подсказка : XviD
Продолжительность : 1 ч. 37 м.
Битрейт : 861 Кбит/сек
Ширина : 624 пикселя
Высота : 352 пикселя
Соотношение сторон : 16:9
Частота кадров : 25,000 кадров/сек
Цветовое пространство : YUV
Субдискретизация насыщенности : 4:2:0
Битовая глубина : 8 бит
Тип развёртки : Чересстрочная
Порядок развёртки : Нижнее поле первое
Метод сжатия : С потерями
Бит/(Пиксели*Кадры) : 0.157
Размер потока : 602 Мбайт (86%)
Библиотека кодирования : XviD 64

Аудио
Идентификатор : 1
Формат : MPEG Audio
Версия формата : Version 1
Профиль формата : Layer 3
Режим : Joint stereo
Расширение режима : MS Stereo
Идентификатор кодека : 55
Идентификатор кодека/Подсказка : MP3
Продолжительность : 1 ч. 37 м.
Вид битрейта : Переменный
Битрейт : 128 Кбит/сек
Каналы : 2 канала
Частота : 48,0 КГц
Метод сжатия : С потерями
Размер потока : 90,7 Мбайт (13%)
Выравнивание : Соединение по промежуткам
Продолжительность промежутка : 24 мс. (0,60 видеокадр)
Время предзагрузки промежутка : 500 мс.
Библиотека кодирования : LAME3.90.
Настройки программы : -m j -V 4 -q 2 -lowpass 17.6 --abr 128


Внимание! AdBlock блокирует показ скриншотов, все вопросы к разработчикам )))
Трекер:  [ 13-Апр-2017 07:00 ]

  

Скачать .torrent

Размер .torrent файла 14 KB


Размер: 702 MB
Хэш (hash) релиза: 7cb36cf54a6e908084c2007236347100d696c98f
Подписка на обновления:

Еще никто не оставлял запись к записи скачать торрент Последний ансамбль в Ливане The Last Band in Lebanon . Будь первым!

!Обратная связь