Скачать через торрент Женщины ХХ века 20th Century Women Фильм бесплатно в хорошем качестве torrent

Скачивайте на UnionPeer.org фильмы через торрент без регистрации. Новинки кино в хорошем качестве через торрент. На UnionPeer.org можно скачать через торрент фильмы 2014 и 2015 годов. Самые новые фильмы.

Скачать торрент Женщины ХХ века 20th Century Women бесплатно через .torrent фильм мультфильм сериал

Статистика раздачи
Размер:  1.46 GB   |    Зарегистрирован:  7 лет 1 месяц   |    .torrent скачан:  46 раз   |   
Раздают:  1  
 

Скачать Женщины ХХ века / 20th Century Women (Майк Миллс / Mike Mills) [2016, США, Драма, комедия, HDRip] Original Eng + Sub Rus через torrent

 
 
Автор Сообщение

Galfimbul

avatar Galfimbul


Женщины ХХ века / 20th Century Women
Страна: США
Жанр: Драма, комедия
Год выпуска: 2016
Продолжительность: 01:58:44
Перевод: Субтитры
Cубтитры: Полные русские - отдельно
Оригинальная аудиодорожка: Английский

Режиссер: Майк Миллс / Mike Mills

В ролях: Аннетт Бенинг, Элль Фэннинг, Грета Гервиг, Билли Крадап, Лукас Джейд Зуманн, Элисон Эллиотт, Теа Гилл, Виталий Эндрю ЛеБо, Валид Зуэйтер

Описание: История о трех женщинах, которые познают любовь и свободу в Южной Калифорнии в конце 1970-х годов.

Сэмпл: http://multi-up.com/1150284

Качество видео: HDRip
Исходник: 20th.Century.Women.2016.1080p.BluRay.x264-GECKOS[rarbg]
Формат видео: AVI
Видео: 720x352 (2.05:1), 23.976 fps, XviD build 65 ~1367 kbps avg, 0.23 bit/pixel
Аудио: 48 kHz, AC3 Dolby Digital, 3/2 (L,C,R,l,r) + LFE ch, ~384 kbps

Rip by Ториял для
1
00:00:43,950 --> 00:00:48,300
Санта-Барбара, 1979.

2
00:01:11,239 --> 00:01:14,029
<i>Это был минивэн
моего мужа.</i>

3
00:01:14,951 --> 00:01:18,041
<i>В нём мы привезли Джейми
домой из роддома.</i>

4
00:01:19,622 --> 00:01:21,922
<i>Моей маме было 40,
когда я родился.</i>

5
00:01:22,375 --> 00:01:24,585
<i>Ей все твердили, что она
слишком стара для материнства.</i>

6
00:01:25,962 --> 00:01:27,862
<i>Просунув руку в
дверцу инкубатора</i>

7
00:01:27,881 --> 00:01:29,131
<i>он сжал мой палец,</i>

8
00:01:29,215 --> 00:01:33,295
<i>тогда я сказала ему,
жизнь необъятна...</i>

9
00:01:34,429 --> 00:01:35,849
<i>и полна тайн.</i>

10
00:01:36,681 --> 00:01:38,831
<i>Она рассказала
мне о животных.</i>

11
00:01:38,850 --> 00:01:40,770
<i>О небесах и городах.</i>

12
00:01:41,352 --> 00:01:43,732
<i>О музыке и кино.</i>

13
00:01:44,230 --> 00:01:45,270
<i>Он влюбится,</i>

14
00:01:46,024 --> 00:01:49,744
<i>заведёт семью. Найдёт
увлечения и смысл,</i>

15
00:01:50,069 --> 00:01:52,199
<i>а рядом будут мать и отец.</i>

16
00:01:53,198 --> 00:01:55,198
<i>Когда они развелись,</i>

17
00:01:55,283 --> 00:01:57,623
<i>отец вернулся на восток,
оставив минивэн нам.</i>

18
00:01:58,787 --> 00:02:00,577
<i>Он звонил на дни
рождения и Рождество.</i>

19
00:02:01,956 --> 00:02:05,916
<i>Последний раз я видел его
на свой день рождения в 1974-м.</i>

20
00:02:06,836 --> 00:02:09,046
<i>Он подарил мне
солнцезащитные очки.</i>

21
00:02:10,381 --> 00:02:13,051
<i>Я увидел, как президент
упал с трапа самолёта</i>

22
00:02:14,177 --> 00:02:15,677
<i>и меня стошнило на ковёр.</i>

23
00:02:19,140 --> 00:02:21,640
<i>С тех пор были только мы.</i>

24
00:02:21,726 --> 00:02:23,287
<i>Я не понимаю.
А как же ты?</i>
Format : AVI
Format/Info : Audio Video Interleave
File size : 1.46 GiB
Duration : 1 h 58 min
Overall bit rate : 1 761 kb/s
Writing application : VirtualDubMod 1.5.10.3 | www.virtualdub-fr.org || (build 2550/release)
Writing library : VirtualDubMod build 2550/release

Video
ID : 0
Format : MPEG-4 Visual
Format profile : Advanced Simple@L5
Format settings, BVOP : 1
Format settings, QPel : No
Format settings, GMC : No warppoints
Format settings, Matrix : Custom
Codec ID : XVID
Codec ID/Hint : XviD
Duration : 1 h 58 min
Bit rate : 1 368 kb/s
Width : 720 pixels
Height : 352 pixels
Display aspect ratio : 2.045
Frame rate : 23.976 (24000/1001) FPS
Color space : YUV
Chroma subsampling : 4:2:0
Bit depth : 8 bits
Scan type : Progressive
Compression mode : Lossy
Bits/(Pixel*Frame) : 0.225
Stream size : 1.13 GiB (78%)
Writing library : XviD 65

Audio
ID : 1
Format : AC-3
Format/Info : Audio Coding 3
Format settings, Endianness : Big
Codec ID : 2000
Duration : 1 h 58 min
Bit rate mode : Constant
Bit rate : 384 kb/s
Channel(s) : 6 channels
Channel positions : Front: L C R, Side: L R, LFE
Sampling rate : 48.0 kHz
Frame rate : 31.250 FPS (1536 spf)
Bit depth : 16 bits
Compression mode : Lossy
Stream size : 326 MiB (22%)
Alignment : Split accross interleaves
Interleave, duration : 42 ms (1.00 video frame)
Interleave, preload duratio : 500 ms
Service kind : Complete Main


Внимание! AdBlock блокирует показ скриншотов, все вопросы к разработчикам )))

Трекер:  [ 20-Апр-2017 10:30 ]

  

Скачать .torrent

Размер .torrent файла 15 KB


Размер: 1.46 GB
Хэш (hash) релиза: 20c03053fac5958cfd3b6d118d0ea4296c196887
Подписка на обновления:

Торренты, похожие на Женщины ХХ века 20th Century Women скачать торрент

Форум Название Автор Размер S L Добавлен
Зарубежные фильмы 2016-2019 (Новинки зарубежного кино) ·%· Женщины ХХ века / 20th Century Women (2016) BDRemux 1080р | D, P Galfimbul 3405120980431.71 GB 0 0 1542157209

04:00

14-Ноя-18

Зарубежные фильмы до 2016 ·· Женщины ХХ века / 20th Century Women (Майк Миллс / Mike Mills) [2016, США, драма, комедия, DVD9] MVO + Original Eng Galfimbul 61352775685.71 GB 0 0 1519504581

23:36

24-Фев-18

Зарубежные фильмы 2016-2019 (Новинки зарубежного кино) ·· Женщины ХХ века / 20th Century Women (Майк Миллс / Mike Mills) [2016, США, драма, комедия, BDRip] MVO (iTunes) Galfimbul 15662039041.46 GB 0 0 1496937899

19:04

8-Июн-17

Зарубежные фильмы 2016-2019 (Новинки зарубежного кино) ·· Женщины ХХ века / 20th Century Women (Майк Миллс) [2016 г., драма, комедия, BDRip 1080p] iTunes Galfimbul 1328068159112.37 GB 0 0 1496771074

20:44

6-Июн-17

Зарубежные фильмы 2016-2019 (Новинки зарубежного кино) ·· Женщины ХХ века / 20th Century Women (Майк Миллс) [2016 г., драма, комедия, BDRip] iTunes Galfimbul 15116369921.41 GB 0 0 1496771065

20:44

6-Июн-17

Зарубежные фильмы 2016-2019 (Новинки зарубежного кино) ·· Женщины ХХ века / 20th Century Women (Майк Миллс) [2016 г., драма, комедия, BDRip 720p] iTunes Galfimbul 69741326576.5 GB 0 0 1496771028

20:43

6-Июн-17

Зарубежные фильмы 2016-2019 (Новинки зарубежного кино) ·· Женщины ХХ века / 20th Century Women (Майк Миллс) [2016 г., драма, комедия, HDRip] MVO | iTunes Galfimbul 14671360001.37 GB 0 0 1496745068

13:31

6-Июн-17

Зарубежные фильмы до 2016 ·· Женщины ХХ века / 20th Century Women (Майк Миллс / Mike Mills) [2016, США, Драма, комедия, BDRip 720p] + Sub Rus + Original Eng Galfimbul 58604479035.46 GB 0 0 1492363253

20:20

16-Апр-17

Зарубежные фильмы 2016-2019 (Новинки зарубежного кино) ·· Женщины ХХ века / 20th Century Women (Майк Миллс) [2016, драма, комедия, DVDScr] Galfimbul 22038773762.05 GB 0 0 1487099767

22:16

14-Фев-17

Еще никто не оставлял запись к записи скачать торрент Женщины ХХ века 20th Century Women . Будь первым!

!Обратная связь