Скачать через торрент Ограды Fences Фильм бесплатно в хорошем качестве torrent

Скачивайте на UnionPeer.org фильмы через торрент без регистрации. Новинки кино в хорошем качестве через торрент. На UnionPeer.org можно скачать через торрент фильмы 2014 и 2015 годов. Самые новые фильмы.

Скачать торрент Ограды Fences бесплатно через .torrent фильм мультфильм сериал

Статистика раздачи
Размер:  14.26 GB   |    Зарегистрирован:  6 лет 10 месяцев   |    .torrent скачан:  21 раз   |   
Раздают:  1  
 

Скачать Ограды / Fences (Дензел Вашингтон / Denzel Washington) [2016, США, драма, BDRip 1080p] Dub + Sub Rus, Eng + Original Eng через torrent

 
 
Автор Сообщение

Galfimbul

avatar Galfimbul


Ограды / Fences

Страна: США
Жанр: драма
Год выпуска: 2016
Продолжительность: 02:18:51
<div style="margin-left: 6em" class="post-ul">

</div>
Перевод: Профессиональный (дублированный)
Cубтитры: русские, английскиe
Оригинальная аудиодорожка: английский
<div style="margin-left: 6em" class="post-ul">

</div>
Режиссер: Дензел Вашингтон / Denzel Washington
<div style="margin-left: 6em" class="post-ul">

</div>
В ролях: Дензел Вашингтон, Виола Дэвис, Стивен Хендерсон, Йован Адепо, Расселл Хорнсби, Майкелти Уильямсон, Саня Сидни, Кристофер С. Меле, Лесли Бун, Джейсон Силвис

Описание: Бывший бейсболист афро-американского происхождения, теперь собирающий мусор с улиц Питтсбурга, изо всех сил старается обеспечить свою семью в Америке 1950-х, где расовый вопрос все еще остается открытым.
<div style="margin-left: 6em" class="post-ul">

</div>
Рип от DON!
<div style="margin-left: 6em" class="post-ul">

</div>
Тип релиза: BDRip 1080p
Контейнер: MKV
<div style="margin-left: 6em" class="post-ul">

</div>
Видео: 1920x804 (2,40:1), 23,976 fps, MPEG-4 AVC, ~12547 kbps, 0.331 Bits/(Pixel*Frame)
<div style="margin-left: 6em" class="post-ul">

</div>
Аудио 1: Russian: 48 kHz, AC3, 3/2 (L,C,R,l,r) + LFE ch, ~640.00 kbps avg | BD CEE
Аудио 2: English: 48 kHz, DTS, 3/2 (L,C,R,l,r) + LFE ch, ~1509.00 kbps avg
Общее
Уникальный идентификатор : 194773467218925623632429619549469174455 (0x9288015A9D1BF3FA86C35CE34DEC6AB7)
Полное имя : D:\Fences.BDRip.1080p.mkv
Формат : Matroska
Версия формата : Version 2
Размер файла : 14,3 Гбайт
Продолжительность : 2 ч. 18 м.
Общий поток : 14,7 Мбит/сек
Дата кодирования : UTC 2017-04-13 17:23:56
Программа кодирования : mkvmerge v5.6.0 ('Kenya Kane') built on May 27 2012 16:44:04
Библиотека кодирования : libebml v1.2.3 + libmatroska v1.3.0

Видео
Идентификатор : 1
Формат : AVC
Формат/Информация : Advanced Video Codec
Профиль формата : [email protected]
Параметр CABAC формата : Да
Параметр ReFrames формата : 5 кадров
Идентификатор кодека : V_MPEG4/ISO/AVC
Продолжительность : 2 ч. 18 м.
Битрейт : 12,3 Мбит/сек
Ширина : 1920 пикселей
Высота : 804 пикселя
Соотношение сторон : 2,40:1
Режим частоты кадров : Постоянный
Частота кадров : 23,976 (24000/1001) кадра/сек
Цветовое пространство : YUV
Субдискретизация насыщенности : 4:2:0
Битовая глубина : 8 бит
Тип развёртки : Прогрессивная
Бит/(Пиксели*Кадры) : 0.331
Размер потока : 11,9 Гбайт (83%)
Библиотека кодирования : x264 core 148 r2721 72d53ab
Настройки программы : cabac=1 / ref=5 / deblock=1:-3:-3 / analyse=0x3:0x133 / me=umh / subme=11 / psy=1 / psy_rd=1.00:0.00 / mixed_ref=1 / me_range=32 / chroma_me=1 / trellis=2 / 8x8dct=1 / cqm=0 / deadzone=21,11 / fast_pskip=0 / chroma_qp_offset=-2 / threads=12 / lookahead_threads=2 / sliced_threads=0 / nr=0 / decimate=0 / interlaced=0 / bluray_compat=0 / constrained_intra=0 / bframes=9 / b_pyramid=2 / b_adapt=2 / b_bias=0 / direct=3 / weightb=1 / open_gop=0 / weightp=2 / keyint=250 / keyint_min=24 / scenecut=40 / intra_refresh=0 / rc_lookahead=150 / rc=crf / mbtree=0 / crf=16.1 / qcomp=0.60 / qpmin=0 / qpmax=69 / qpstep=4 / vbv_maxrate=62500 / vbv_bufsize=78125 / crf_max=0.0 / nal_hrd=none / filler=0 / ip_ratio=1.30 / pb_ratio=1.20 / aq=3:0.75
Язык : English
Default : Да
Forced : Нет

Аудио #1
Идентификатор : 2
Формат : AC-3
Формат/Информация : Audio Coding 3
Расширение режима : CM (complete main)
Параметр Endianness формата : Big
Идентификатор кодека : A_AC3
Продолжительность : 2 ч. 18 м.
Вид битрейта : Постоянный
Битрейт : 640 Кбит/сек
Каналы : 6 каналов
Расположение каналов : Front: L C R, Side: L R, LFE
Частота : 48,0 КГц
Частота кадров : 31,250 кадров/сек (1536 spf)
Битовая глубина : 16 бит
Метод сжатия : С потерями
Размер потока : 636 Мбайт (4%)
Язык : Russian
Default : Да
Forced : Нет

Аудио #2
Идентификатор : 3
Формат : DTS
Формат/Информация : Digital Theater Systems
Режим : 16
Параметр Endianness формата : Big
Идентификатор кодека : A_DTS
Продолжительность : 2 ч. 18 м.
Вид битрейта : Постоянный
Битрейт : 1509 Кбит/сек
Каналы : 6 каналов
Расположение каналов : Front: L C R, Side: L R, LFE
Частота : 48,0 КГц
Частота кадров : 93,750 кадра/сек (512 spf)
Битовая глубина : 24 бит
Метод сжатия : С потерями
Размер потока : 1,46 Гбайт (10%)
Язык : English
Default : Нет
Forced : Нет

Текст #1
Идентификатор : 4
Формат : UTF-8
Идентификатор кодека : S_TEXT/UTF8
Идентификатор кодека/Информация : UTF-8 Plain Text
Заголовок : Forced, iTunes
Язык : Russian
Default : Да
Forced : Нет

Текст #2
Идентификатор : 5
Формат : UTF-8
Идентификатор кодека : S_TEXT/UTF8
Идентификатор кодека/Информация : UTF-8 Plain Text
Заголовок : iTunes
Язык : Russian
Default : Нет
Forced : Нет

Текст #3
Идентификатор : 6
Формат : UTF-8
Идентификатор кодека : S_TEXT/UTF8
Идентификатор кодека/Информация : UTF-8 Plain Text
Язык : English
Default : Нет
Forced : Нет

Текст #4
Идентификатор : 7
Формат : UTF-8
Идентификатор кодека : S_TEXT/UTF8
Идентификатор кодека/Информация : UTF-8 Plain Text
Заголовок : SDH
Язык : English
Default : Нет
Forced : Нет

Меню
00:00:00.000 : en:Chapter 01
00:06:38.398 : en:Chapter 02
00:13:45.241 : en:Chapter 03
00:21:06.307 : en:Chapter 04
00:30:06.263 : en:Chapter 05
00:37:17.819 : en:Chapter 06
00:45:10.625 : en:Chapter 07
00:51:49.148 : en:Chapter 08
00:57:56.932 : en:Chapter 09
01:04:59.104 : en:Chapter 10
01:13:11.846 : en:Chapter 11
01:23:34.760 : en:Chapter 12
01:29:57.851 : en:Chapter 13
01:36:18.147 : en:Chapter 14
01:43:13.312 : en:Chapter 15
01:54:28.153 : en:Chapter 16
02:01:40.210 : en:Chapter 17
02:10:13.806 : en:Chapter 18


Внимание! AdBlock блокирует показ скриншотов, все вопросы к разработчикам )))
Трекер:  [ 23-Апр-2017 15:00 ]

  

Скачать .torrent

Размер .torrent файла 71 KB


Размер: 14.26 GB
Хэш (hash) релиза: 3c513b178c1d2f45d7d61476d9e8f20a1069c787
Подписка на обновления:

Торренты, похожие на Ограды Fences скачать торрент

Форум Название Автор Размер S L Добавлен
Зарубежные фильмы до 2016 ·%· Ограды / Fences (Дензел Вашингтон / Denzel Washington) [2016, США, Драма, DVD9] R5 Dub + Sub Rus + Original Eng Galfimbul 75352186887.02 GB 0 0 1529411444

15:30

19-Июн-18

Зарубежные фильмы 2016-2019 (Новинки зарубежного кино) ·· Ограды / Fences (Дензел Вашингтон / Denzel Washington) [2016, США, драма, BDRip] Dub + Original Eng + Sub Rus, Eng Galfimbul 31298152442.91 GB 0 0 1510889411

06:30

17-Ноя-17

Трейлеры и дополнительные материалы ·· Ограды / Fences (Дензел Вашингтон / Denzel Washington) [2016, Драма, BDRip 720p] дополнительные материалы Galfimbul 12210867201.14 GB 0 0 1493800057

11:27

3-Май-17

Зарубежные фильмы до 2016 ·· Ограды / Fences (Дензел Вашингтон / Denzel Washington) [2016, США, драма, BDRip 720p] Dub + Sub Rus, Eng + Original Eng Galfimbul 59834976475.57 GB 0 0 1492952519

16:01

23-Апр-17

Зарубежные фильмы до 2016 ·· Ограды / Fences (Дензел Вашингтон / Denzel Washington) [2016, США, драма, Blu-ray disc 1080p] Dub (CEE) + Sub Rus, Eng + Original Eng Galfimbul 4768849295244.41 GB 0 0 1492438937

17:22

17-Апр-17

Зарубежные фильмы 2016-2019 (Новинки зарубежного кино) ·· Ограды / Fences (Дензел Вашингтон) [2016, драма, BDRip 720p] Лицензия Galfimbul 68890172636.42 GB 0 0 1492090899

16:41

13-Апр-17

Зарубежные фильмы 2016-2019 (Новинки зарубежного кино) ·· Ограды / Fences (Дензел Вашингтон) [2016, драма, BDRip 1080p] Лицензия Galfimbul 1530796989214.26 GB 0 0 1492090893

16:41

13-Апр-17

Зарубежные фильмы 2016-2019 (Новинки зарубежного кино) ·· Ограды / Fences (Дензел Вашингтон) [2016, драма, Blu-ray 1080p] iTunes Galfimbul 4261375675739.69 GB 0 0 1491801379

08:16

10-Апр-17

Зарубежные фильмы 2016-2019 (Новинки зарубежного кино) ·· Ограды / Fences (Дензел Вашингтон / Denzel Washington) [2016, США, драма, BDRip-AVC] Dub + Original Eng + Sub (Rus, Eng) Galfimbul 22608574552.11 GB 0 0 1491668844

19:27

8-Апр-17

Зарубежные фильмы 2016-2019 (Новинки зарубежного кино) ·· Ограды / Fences (Дензел Вашингтон / Denzel Washington) [2016, США, Драма, HDRip] Dub (iTunes) Galfimbul 22047293442.05 GB 0 0 1491496439

19:33

6-Апр-17

Зарубежные фильмы 2016-2019 (Новинки зарубежного кино) ·· Ограды / Fences (Дензел Вашингтон / Denzel Hayes Washington) [2016, США, Драма, BDRip] Original + Sub Rus Galfimbul 15696244491.46 GB 0 0 1489056991

13:56

9-Мар-17

Зарубежные фильмы 2016-2019 (Новинки зарубежного кино) ·· Ограды / Fences (Дензел Вашингтон) [2016, драма, BDRip 720p] Galfimbul 63017195305.87 GB 0 0 1488870872

10:14

7-Мар-17

Зарубежные фильмы 2016-2019 (Новинки зарубежного кино) ·· Ограды / Fences (Дензел Вашингтон) [2016, драма, BDRip 1080p] Galfimbul 1179547726110.99 GB 0 0 1488870866

10:14

7-Мар-17

Зарубежные фильмы 2016-2019 (Новинки зарубежного кино) ·· Ограды / Fences (Дензел Вашингтон) [2016, драма, HDRip] Galfimbul 14678835201.37 GB 0 0 1488869005

09:43

7-Мар-17

Зарубежные фильмы 2016-2019 (Новинки зарубежного кино) ·· Ограды / Fences (Дензел Вашингтон) [2016, драма, WEB-DLRip 1080р] Galfimbul 57179411455.33 GB 0 0 1488177635

09:40

27-Фев-17

Зарубежные фильмы 2016-2019 (Новинки зарубежного кино) ·· Ограды / Fences (Дензел Вашингтон) [2016, драма, WEB-DLRip] Galfimbul 14673858561.37 GB 0 0 1488177629

09:40

27-Фев-17

Зарубежные фильмы 2016-2019 (Новинки зарубежного кино) ·· Ограды / Fences (Дензел Вашингтон) [2016, драма, WEB-DLRip 720р] Galfimbul 47464818434.42 GB 0 0 1488177623

09:40

27-Фев-17

Зарубежные фильмы 2016-2019 (Новинки зарубежного кино) ·· Ограды / Fences (Дензел Вашингтон) [2016, драма, WEB-DLRip] Galfimbul 22042869762.05 GB 0 0 1488177618

09:40

27-Фев-17

Зарубежные фильмы 2016-2019 (Новинки зарубежного кино) ·· Ограды / Fences (Дензел Вашингтон) [2016, драма, DVDScr] Galfimbul 14670622721.37 GB 0 0 1483681277

08:41

6-Янв-17

Еще никто не оставлял запись к записи скачать торрент Ограды Fences . Будь первым!

!Обратная связь