Скачать через торрент Война против всех War on Everyone Фильм бесплатно в хорошем качестве torrent

Скачивайте на UnionPeer.org фильмы через торрент без регистрации. Новинки кино в хорошем качестве через торрент. На UnionPeer.org можно скачать через торрент фильмы 2014 и 2015 годов. Самые новые фильмы.

Скачать торрент Война против всех War on Everyone бесплатно через .torrent фильм мультфильм сериал

Статистика раздачи
Размер:  15.54 GB   |    Зарегистрирован:  6 лет 10 месяцев   |    .torrent скачан:  33 раза   |   
Раздают:  1  
   
 
Автор Сообщение

Galfimbul

avatar Galfimbul


Война против всех / War on Everyone
Страна: Великобритания
Студия: Head Gear Films, Kreo Films FZ, Metrol Technology
Жанр: Комедия
Год выпуска: 2016
Продолжительность: 01:37:54

Перевод 1: Профессиональный (дублированный) BD RUS
Перевод 2: Одноголосый закадровый Д. Есарев
Перевод 3: Одноголосый закадровый М. Яроцкий
Субтитры: Русские, Английские
Оригинальная аудиодорожка: Английская

Режиссер: Джон Майкл МакДона / John Michael McDonagh

В ролях: Александр Скарсгард, Майкл Пенья, Тесса Томпсон, Тео Джеймс, Калеб Лэндри Джонс, Малкольм Баррет, Дэвид Уилмот, Стефани Сигман, Пол Райзер, Джеффри Померой.

Описание: Двое коррумпированных копов-отморозков из Нью-Мексико прессуют всех, кто попадается им под руку... или под колеса авто. Судьба подкидывает им шанс срубить целый миллион долларов, но на смачный куш также претендует эксцентричный английский лорд не без странных пристрастий. В борьбе за заслуженный улов напарники случайно узнают о стрёмных секретах красавчика-лорда и впрягаются нести возмездие. Плохим копам не терпится попробовать нечто совсем новое — борьбу за справедливость... ну, за то, как они понимают справедливость.
Рейтинг

Сэмпл

Тип релиза: BDRip 1080p
Контейнер: MKV

Исходник: War on Everyone 2016 1080p Blu-ray AVC DTS-HD MA 5.1-PCH
Видео: 1920x804 (2.40:1), 24.000 fps, x264, ~16300 kbps | Encode by HR
Аудио 1: Russian: 48 kHz, DTS, 3/2 (L,C,R,l,r) + LFE ch, ~1509 kbps | Дубляж, BD RUS
Аудио 2: Russian: 48 kHz, DTS, 3/2 (L,C,R,l,r) + LFE ch, ~1509 kbps | Одноголосый закадровый, Д. Есарев
Аудио 3: Russian: 48 kHz, DTS, 3/2 (L,C,R,l,r) + LFE ch, ~1509 kbps | Одноголосый закадровый, М.Яроцкий
Аудио 4: English: 48 kHz, DTS, 3/2 (L,C,R,l,r) + LFE ch, ~1509 kbps
Аудио 5: English: 48 kHz, AC3, 2/0 (L,R) ch, ~192 kbps | Descriptive
Аудио 6: English: 48 kHz, AC3, 2/0 (L,R) ch, ~192 kbps | Commentary with John Michael McDonagh
Субтиры: Русские (Full, Forced) Английские (Full, SDH, SDH-COLORED)
Формат субтитров: softsub (SRT)

Рейтинг MPAA - R.
Внимание! В одноголосых переводах присутствует ненормативная лексика!
Перевод Д.Есарева доступен благодаря ресурсу "Переулок Переводмана". Заказ перевода RW. Работа со звуком mihaildns.
Перевод М.Яроцкого доступен благодаря ресурсу "Переулок Переводмана". Заказ перевода dikii. Работа со звуком Переводман.
В аудио дорожку №1 вставлена заствка Icon Home Entertainment.
General
Unique ID : 190033949000803399608935774857203919477 (0x8EF73510810360A6A433D9431D41AA75)
Complete name : E:\video_rutracker\War.on.Everyone.2016.1080p.BluRay.3xRus.Eng.DTS.x264.mkv
Format : Matroska
Format version : Version 2
File size : 15.5 GiB
Duration : 1h 37mn
Overall bit rate : 22.7 Mbps
Movie name : War on Everyone 2016 | RuTracker
Encoded date : UTC 2017-04-08 12:17:27
Writing application : mkvmerge v10.0.0 ('To Drown In You') 64bit
Writing library : libebml v1.3.4 + libmatroska v1.4.5
Cover : Yes
Attachments : cover.jpg

Video
ID : 1
Format : AVC
Format/Info : Advanced Video Codec
Format profile : [email protected]
Format settings, CABAC : Yes
Format settings, ReFrames : 5 frames
Codec ID : V_MPEG4/ISO/AVC
Duration : 1h 37mn
Bit rate : 15.8 Mbps
Width : 1 920 pixels
Height : 804 pixels
Display aspect ratio : 2.40:1
Frame rate mode : Constant
Frame rate : 24.000 fps
Color space : YUV
Chroma subsampling : 4:2:0
Bit depth : 8 bits
Scan type : Progressive
Bits/(Pixel*Frame) : 0.428
Stream size : 10.8 GiB (70%)
Title : Encode by HR
Writing library : x264 core 129 r2245+729M 1a52e03
Encoding settings : cabac=1 / ref=5 / deblock=1:-3:-3 / analyse=0x3:0x133 / me=umh / subme=11 / psy=1 / fade_compensate=0.00 / psy_rd=1.00:0.00 / mixed_ref=1 / me_range=64 / chroma_me=1 / trellis=2 / 8x8dct=1 / cqm=0 / deadzone=6,6 / fast_pskip=0 / chroma_qp_offset=-2 / threads=48 / lookahead_threads=6 / sliced_threads=0 / nr=0 / decimate=0 / interlaced=0 / bluray_compat=0 / constrained_intra=0 / fgo=0 / bframes=8 / b_pyramid=2 / b_adapt=2 / b_bias=0 / direct=3 / weightb=1 / open_gop=1 / weightp=2 / keyint=250 / keyint_min=24 / scenecut=40 / intra_refresh=0 / rc_lookahead=120 / rc=crf / mbtree=0 / crf=17.7 / qcomp=0.65 / qpmin=0 / qpmax=69 / qpstep=4 / vbv_maxrate=50000 / vbv_bufsize=50000 / crf_max=0.0 / nal_hrd=none / ip_ratio=1.30 / pb_ratio=1.20 / aq=3:0.80 / zones=25466,26358,crf=14/49083,49311,crf=14/120686,122630,crf=15
Language : English
Default : Yes
Forced : No

Audio #1
ID : 2
Format : DTS
Format/Info : Digital Theater Systems
Mode : 16
Format settings, Endianness : Big
Codec ID : A_DTS
Duration : 1h 37mn
Bit rate mode : Constant
Bit rate : 1 509 Kbps
Channel(s) : 6 channels
Channel positions : Front: L C R, Side: L R, LFE
Sampling rate : 48.0 KHz
Frame rate : 93.750 fps (512 spf)
Bit depth : 24 bits
Compression mode : Lossy
Stream size : 1.03 GiB (7%)
Title : Дубляж, BD RUS
Language : Russian
Default : Yes
Forced : No

Audio #2
ID : 3
Format : DTS
Format/Info : Digital Theater Systems
Mode : 16
Format settings, Endianness : Big
Codec ID : A_DTS
Duration : 1h 37mn
Bit rate mode : Constant
Bit rate : 1 509 Kbps
Channel(s) : 6 channels
Channel positions : Front: L C R, Side: L R, LFE
Sampling rate : 48.0 KHz
Frame rate : 93.750 fps (512 spf)
Bit depth : 24 bits
Compression mode : Lossy
Stream size : 1.03 GiB (7%)
Title : Одноголосый закадровый, Д. Есарев
Language : Russian
Default : No
Forced : No

Audio #3
ID : 4
Format : DTS
Format/Info : Digital Theater Systems
Mode : 16
Format settings, Endianness : Big
Codec ID : A_DTS
Duration : 1h 37mn
Bit rate mode : Constant
Bit rate : 1 509 Kbps
Channel(s) : 6 channels
Channel positions : Front: L C R, Side: L R, LFE
Sampling rate : 48.0 KHz
Frame rate : 93.750 fps (512 spf)
Bit depth : 24 bits
Compression mode : Lossy
Stream size : 1.03 GiB (7%)
Title : Одноголосый закадровый, М.Яроцкий
Language : Russian
Default : No
Forced : No

Audio #4
ID : 5
Format : DTS
Format/Info : Digital Theater Systems
Mode : 16
Format settings, Endianness : Big
Codec ID : A_DTS
Duration : 1h 37mn
Bit rate mode : Constant
Bit rate : 1 509 Kbps
Channel(s) : 6 channels
Channel positions : Front: L C R, Side: L R, LFE
Sampling rate : 48.0 KHz
Frame rate : 93.750 fps (512 spf)
Bit depth : 24 bits
Compression mode : Lossy
Stream size : 1.03 GiB (7%)
Language : English
Default : No
Forced : No

Audio #5
ID : 6
Format : AC-3
Format/Info : Audio Coding 3
Mode extension : CM (complete main)
Format settings, Endianness : Big
Codec ID : A_AC3
Duration : 1h 37mn
Bit rate mode : Constant
Bit rate : 192 Kbps
Channel(s) : 2 channels
Channel positions : Front: L R
Sampling rate : 48.0 KHz
Frame rate : 31.250 fps (1536 spf)
Compression mode : Lossy
Stream size : 134 MiB (1%)
Title : Descriptive
Language : English
Default : No
Forced : No

Audio #6
ID : 7
Format : AC-3
Format/Info : Audio Coding 3
Mode extension : CM (complete main)
Format settings, Endianness : Big
Codec ID : A_AC3
Duration : 1h 37mn
Bit rate mode : Constant
Bit rate : 192 Kbps
Channel(s) : 2 channels
Channel positions : Front: L R
Sampling rate : 48.0 KHz
Frame rate : 31.250 fps (1536 spf)
Compression mode : Lossy
Stream size : 134 MiB (1%)
Title : Commentary with John Michael McDonagh
Language : English
Default : No
Forced : No

Text #1
ID : 8
Format : UTF-8
Codec ID : S_TEXT/UTF8
Codec ID/Info : UTF-8 Plain Text
Title : Forced
Language : Russian
Default : Yes
Forced : No

Text #2
ID : 9
Format : UTF-8
Codec ID : S_TEXT/UTF8
Codec ID/Info : UTF-8 Plain Text
Title : Full
Language : Russian
Default : No
Forced : No

Text #3
ID : 10
Format : UTF-8
Codec ID : S_TEXT/UTF8
Codec ID/Info : UTF-8 Plain Text
Title : Full
Language : English
Default : No
Forced : No

Text #4
ID : 11
Format : UTF-8
Codec ID : S_TEXT/UTF8
Codec ID/Info : UTF-8 Plain Text
Title : SDH
Language : English
Default : No
Forced : No

Text #5
ID : 12
Format : UTF-8
Codec ID : S_TEXT/UTF8
Codec ID/Info : UTF-8 Plain Text
Title : SDH-COLORED
Language : English
Default : No
Forced : No

Menu
00:00:00.000 : en:Chapter 1
00:09:14.875 : en:Chapter 2
00:16:29.458 : en:Chapter 3
00:29:19.875 : en:Chapter 4
00:38:06.083 : en:Chapter 5
00:46:43.875 : en:Chapter 6
00:55:52.458 : en:Chapter 7
01:03:24.458 : en:Chapter 8
01:12:57.458 : en:Chapter 9
01:19:10.458 : en:Chapter 10
01:25:15.458 : en:Chapter 11
01:31:57.458 : en:Chapter 12


Внимание! AdBlock блокирует показ скриншотов, все вопросы к разработчикам )))
Трекер:  [ 23-Апр-2017 15:00 ]

  

Скачать .torrent

Размер .torrent файла 78 KB


Размер: 15.54 GB
Хэш (hash) релиза: c5440bd16b6c7736e9d19eb6b2949b2bc1a2d384
Подписка на обновления:

Торренты, похожие на Война против всех War on Everyone скачать торрент

Форум Название Автор Размер S L Добавлен
Зарубежные фильмы до 2016 ·· Война против всех / War on Everyone (Джон Майкл МакДона / John Michael McDonagh) [2016, Великобритания, Комедия, криминал, DVD9] R5 Dub + Sub Rus + Original Eng Galfimbul 59602944005.55 GB 0 0 1525365030

19:30

3-Май-18

Зарубежные фильмы 2016-2019 (Новинки зарубежного кино) ·· Война против всех / War on Everyone (Джон Майкл МакДона / John Michael McDonagh) [2016, Великобритания, комедия, боевик, BDRip] Лицензия Galfimbul 15666696141.46 GB 0 0 1518284418

20:40

10-Фев-18

Зарубежные фильмы 2016-2019 (Новинки зарубежного кино) ·· Война против всех / War on Everyone (Джон Майкл МакДона / John Michael McDonagh) [2016, Великобритания, комедия, боевик, BDRip] AVO (Юрий Немахов) Galfimbul 15707463681.46 GB 0 0 1515592872

17:01

10-Янв-18

Зарубежные фильмы до 2016 ·· Война против всех / War on Everyone (Джон Майкл МакДона / John Michael McDonagh) [2016, Великобритания, комедия, Blu-ray disc 1080p] Dub (RUS) + Sub Rus + Original Eng Galfimbul 2174338786020.25 GB 0 0 1489332934

18:35

12-Мар-17

Зарубежные фильмы 2016-2019 (Новинки зарубежного кино) ·· Война против всех / War on Everyone (Джон Майкл МакДона / John Michael McDonagh) [2016, Великобритания, комедия, криминал, BDRip] Dub (iTunes) + Original + Sub (Rus, Eng) Galfimbul 23012335512.14 GB 0 0 1487005880

20:11

13-Фев-17

Зарубежные фильмы 2016-2019 (Новинки зарубежного кино) ·· Война против всех / War on Everyone (Джон Майкл МакДона) [2016, комедия, HDRip] Galfimbul 15637708801.46 GB 0 0 1486851127

01:12

12-Фев-17

Зарубежные фильмы до 2016 ·· Война против всех / War on Everyone (Джон Майкл МакДона / John Michael McDonagh) [2016, Великобритания, комедия, BDRemux 1080p] Dub (iTunes) + Sub Rus, Eng + Original Eng Galfimbul 3154241378829.38 GB 0 0 1486053417

19:36

2-Фев-17

Зарубежные фильмы до 2016 ·· Война против всех / War on Everyone (Джон Майкл МакДона / John Michael McDonagh) [2016, Великобритания, комедия, BDRip 720p] Dub + Original eng + Sub (rus, eng) Galfimbul 51776170984.82 GB 0 0 1486053408

19:36

2-Фев-17

Зарубежные фильмы 2016-2019 (Новинки зарубежного кино) ·· Война против всех / War on Everyone (Джон Майкл МакДона) [2016, комедия, BDRip 720p] iTunes Galfimbul 37593527563.5 GB 0 0 1486039583

15:46

2-Фев-17

Зарубежные фильмы 2016-2019 (Новинки зарубежного кино) ·· Война против всех / War on Everyone (Джон Майкл МакДона) [2016, комедия, BDRemux 1080p] iTunes Galfimbul 2472224466623.02 GB 0 0 1485830471

05:41

31-Янв-17

Зарубежные фильмы 2016-2019 (Новинки зарубежного кино) ·· Война против всех / War on Everyone (Джон Майкл МакДона) [2016, комедия, BDRip 1080p] iTunes Galfimbul 73235438766.82 GB 0 0 1485605701

15:15

28-Янв-17

Зарубежные фильмы до 2016 ·· Война против всех / War on Everyone (Джон Майкл МакДона / John Michael McDonagh) [2016, Великобритания, комедия, WEB-DL 1080p] Dub (iTunes) + Sub Rus, Eng + Original Eng Galfimbul 39000813753.63 GB 0 0 1485188762

19:26

23-Янв-17

Зарубежные фильмы до 2016 ·· Война против всех / War on Everyone (Джон Майкл МакДона / John Michael McDonagh) [2016, Великобритания, комедия, WEB-DL 720p] [Локализованный видеоряд] Dub (iTunes) + Original Eng Galfimbul 35411605543.3 GB 0 0 1485105036

20:10

22-Янв-17

Зарубежные фильмы 2016-2019 (Новинки зарубежного кино) ·· Война против всех / War on Everyone (Джон Майкл МакДона / John Michael McDonagh) [2016, Великобритания, Комедия, WEB-DLRip] [Локализованный видеоряд] Dub (iTunes) Galfimbul 15635517441.46 GB 0 0 1484577066

17:31

16-Янв-17

Зарубежные фильмы 2016-2019 (Новинки зарубежного кино) ·· Война против всех / War on Everyone (Джон Майкл МакДона / John Michael McDonagh) [2016, Великобритания, комедия, WEB-DLRip-AVC] Dub + Original + Sub (rus, eng) Galfimbul 15853376321.48 GB 0 0 1484577062

17:31

16-Янв-17

Зарубежные фильмы 2016-2019 (Новинки зарубежного кино) ·· Война против всех / War on Everyone (Джон Майкл МакДона / John Michael McDonagh) [2016, Великобритания, комедия, WEB-DLRip] Dub Galfimbul 781157272745 MB 0 0 1484577054

17:30

16-Янв-17

Зарубежные фильмы 2016-2019 (Новинки зарубежного кино) ·· Война против всех / War on Everyone (Джон Майкл МакДона / John Michael McDonagh) [2016, Великобритания, комедия, WEB-DL 1080p] iTunes Galfimbul 39000144213.63 GB 0 0 1484504429

21:20

15-Янв-17

Зарубежные фильмы 2016-2019 (Новинки зарубежного кино) ·· Война против всех / War on Everyone (Джон Майкл МакДона / John Michael McDonagh) [2016, Великобритания, комедия, WEB-DLRip] AVO (Пучков) + Org (Eng) Galfimbul 14990356481.4 GB 0 0 1484234855

18:27

12-Янв-17

Зарубежные фильмы 2016-2019 (Новинки зарубежного кино) ·· Война против всех / War on Everyone (Джон Майкл МакДона) [2016, комедия, WEB-DLRip] Galfimbul 15707238401.46 GB 0 0 1483756943

05:42

7-Янв-17

Еще никто не оставлял запись к записи скачать торрент Война против всех War on Everyone . Будь первым!

!Обратная связь