Скачать через торрент Гений Genius Фильм бесплатно в хорошем качестве torrent

Скачивайте на UnionPeer.org фильмы через торрент без регистрации. Новинки кино в хорошем качестве через торрент. На UnionPeer.org можно скачать через торрент фильмы 2014 и 2015 годов. Самые новые фильмы.

Скачать торрент Гений Genius бесплатно через .torrent фильм мультфильм сериал

Статистика раздачи
Размер:  1.08 GB   |    Зарегистрирован:  6 лет 9 месяцев   |    .torrent скачан:  56 раз   |   
Раздают:  1  
   
 
Автор Сообщение

Galfimbul

avatar Galfimbul


Гений / Genius

Год выпуска: 2017
Страна: США
Жанр: драма, биография, история
Продолжительность: 60 мин

Перевод: Субтитры by Outbreak

Режиссёр: Джеймс Хоуз, Минки Спиро, Рон Ховард
В ролях: Джеффри Раш, Джонни Флинн, Николас Роу, Саманта Колли, Джон Флетчер, Алисия фон Риттберг, Сильвия Бухбайер, Гвендолин Эллис, Т.Р. Найт, Люси Расселл

Описание: Сериал о том, как Эйнштейн в молодости не мог получить работу преподавателя, и как он пришёл к теории относительности.

Ссылка на предыдущие и альтернативные раздачи:

Сэмпл: https://yadi.sk/i/vomUwu_j3HNFnF

Качество: HDTVRip 720p
Контейнер: MKV
Видео: AVC, 1280x640, 2:1, 25.000 fps, 2073 kbps
Аудио: AС-3, 48 kHz, 6 ch, 384 kbps
Субтитры: softsub (SRT), русские
Реклама: отсутствует
Внимание! Раздача ведётся путём добавления новых серий; при каждом добавлении создаётся новый торрент. Чтобы начать докачку новой серии, пользователям необходимо сделать следующее:
(1) остановить скачивание,
(2) удалить старый торрент у себя из клиента (старые серии удалять не надо),
(3) скачать новый торрент и запустить его у себя в клиенте вместо старого, при этом указать клиенту путь в старую папку куда и должно происходить скачивание новых серий.
Ваш клиент при этом должен произвести хеширование (проверку) старой папки (если не производит сам - помогите ему сделать это), и будет докачивать только те серии которых у вас ещё нет. Старые серии при этом не удаляются, а продолжают раздаваться!
Eсли вы уже удалили старые серии, то предотвратить повторную закачку старых серий можно, отжав галочку в соответствующих местах при запуске нового торрента. По возможности, желательно не удалять старые серии как можно дольше чтобы релизёр не столько продолжал раздавать старые серии, а смог сконцентрироваться на новых.
Video
ID : 1
Format : AVC
Format/Info : Advanced Video Codec
Format profile : [email protected]
Format settings, CABAC : Yes
Format settings, ReFrames : 5 frames
Codec ID : V_MPEG4/ISO/AVC
Duration : 1h 1mn
Bit rate : 2 073 Kbps
Width : 1 280 pixels
Height : 640 pixels
Display aspect ratio : 2.000
Frame rate mode : Constant
Frame rate : 25.000 fps
Color space : YUV
Chroma subsampling : 4:2:0
Bit depth : 8 bits
Scan type : Progressive
Bits/(Pixel*Frame) : 0.101
Stream size : 918 MiB (83%)
Writing library : x264 core 148 r2762 90a61ec
Encoding settings : cabac=1 / ref=5 / deblock=1:0:0 / analyse=0x3:0x113 / me=hex / subme=8 / psy=1 / psy_rd=1.00:0.00 / mixed_ref=1 / me_range=16 / chroma_me=1 / trellis=2 / 8x8dct=1 / cqm=0 / deadzone=21,11 / fast_pskip=1 / chroma_qp_offset=-2 / threads=12 / lookahead_threads=2 / sliced_threads=0 / nr=0 / decimate=1 / interlaced=0 / bluray_compat=0 / constrained_intra=0 / bframes=3 / b_pyramid=2 / b_adapt=1 / b_bias=0 / direct=3 / weightb=1 / open_gop=0 / weightp=2 / keyint=250 / keyint_min=25 / scenecut=40 / intra_refresh=0 / rc_lookahead=50 / rc=crf / mbtree=1 / crf=18.0 / qcomp=0.60 / qpmin=0 / qpmax=69 / qpstep=4 / ip_ratio=1.40 / aq=1:1.00
Language : English
Default : Yes
Forced : No
Color range : Limited
Matrix coefficients : BT.709

Audio
ID : 2
Format : AC-3
Format/Info : Audio Coding 3
Mode extension : CM (complete main)
Format settings, Endianness : Big
Codec ID : A_AC3
Duration : 1h 1mn
Bit rate mode : Constant
Bit rate : 384 Kbps
Channel(s) : 6 channels
Channel positions : Front: L C R, Side: L R, LFE
Sampling rate : 48.0 KHz
Frame rate : 31.250 fps (1536 spf)
Compression mode : Lossy
Stream size : 170 MiB (15%)
Default : Yes
Forced : No


Внимание! AdBlock блокирует показ скриншотов, все вопросы к разработчикам )))
Трекер:  [ 26-Апр-2017 13:30 ]

  

Скачать .torrent

Размер .torrent файла 11 KB


Размер: 1.08 GB
Хэш (hash) релиза: 7dac41eb617b18437a897d1120c0932a4469db4e
Подписка на обновления:

Торренты, похожие на Гений Genius скачать торрент

Форум Название Автор Размер S L Добавлен
Зарубежные сериалы ·· Гений / Genius / Сезон: 1 / Серии: 1 из 10 (Джеймс Хоуз, Минки Спиро, Рон Ховард) [2017, США, Драма, биография, история., HDTVRip 720p] MVO (Jaskier) + Original Galfimbul 13428637631.25 GB 0 0 1493215947

17:12

26-Апр-17

Зарубежные сериалы ·· Гений / Genius / Сезон: 1 / Серии: 10 из 10 (Джеймс Хоуз, Минки Спиро, Рон Ховард) [2017, США, Драма, биография, история, WEB-DLRip] MVO (National Geographic) Galfimbul 87861557328.18 GB 0 0 1503305549

11:52

21-Авг-17

Зарубежные сериалы ·· Гений / Genius / Сезон: 1 / Серии: 1-7 из 10 (Джеймс Хоуз, Минки Спиро, Рон Ховард) [2017, США, Драма, биография, история., HDTVRip] MVO (Jaskier) + Original Galfimbul 45662924804.25 GB 0 0 1497033876

21:44

9-Июн-17

Зарубежные сериалы ·· Гений / Genius / Сезон: 1 / Серии: 1-7 из 10 (Джеймс Хоуз, Минки Спиро, Рон Ховард) [2017, США, Драма, биография, история., HDTVRip 720p] MVO (Jaskier) + Original Galfimbul 69834554016.5 GB 0 0 1496957186

00:26

9-Июн-17

Зарубежные сериалы ·%· Гений: Пикассо / Genius: Picasso / Сезон: 2 / Серии: 1-10 из 10 (Кеннет Биллер, Джеймс Хоуз, Кевин Хукс) [2018, США, Драма, биография, история., WEBRip l 720p] MVO (Good People) + Original + Sub (eng) Galfimbul 1427674665713.3 GB 0 0 1531882093

05:48

18-Июл-18

Зарубежные сериалы ·%· Гений: Пикассо / Genius: Picasso / Сезон: 2 / Серии: 1-7 из 10 (Кеннет Биллер, Джеймс Хоуз, Кевин Хукс) [2018, США, Драма, биография, история., WEB-DLRip] MVO (Good People) + Original Galfimbul 44074025224.1 GB 0 0 1531649892

13:18

15-Июл-18

Зарубежные сериалы ·· Гений: Пикассо / Genius: Picasso / Сезон: 2 / Серии: 1-8 из 10 (Джеймс Хоуз, Минки Спиро, Рон Ховард) [2018, США, Драма, биография, история., WEB-DL 1080p] MVO (Jaskier) + Original + Sub Eng Galfimbul 2646950274124.65 GB 0 0 1527950901

17:48

2-Июн-18

Зарубежные сериалы ·· Гений: Пикассо / Genius: Picasso / Сезон: 2 / Серии: 1-3 из 10 (Джеймс Хоуз, Минки Спиро, Рон Ховард) [2018, США, Драма, биография, история., WEB-DL 720p] MVO (Jaskier) + Original + Sub Eng Galfimbul 34079179293.17 GB 0 0 1526464103

12:48

16-Май-18

Зарубежные сериалы ·· Гений: Пикассо / Genius: Picasso / Сезон: 2 / Серии: 1-3 из 10 (Кеннет Биллер, Джеймс Хоуз, Кевин Хукс) [2018, США, Драма, биография, история., WEB-DLRip] MVO (Jaskier) + Original Galfimbul 18892738561.76 GB 0 0 1526464087

12:48

16-Май-18

Зарубежные сериалы ·· Гений: Пикассо / Genius: Picasso / Сезон: 2 / Серии: 1-4 из 10 (Кеннет Биллер, Джеймс Хоуз, Кевин Хукс) [2018, США, Драма, биография, история, WEBRip] DVO (Gears Media) + Original Galfimbul 23168777462.16 GB 0 0 1524788289

03:18

27-Апр-18

Зарубежные сериалы ·· Гений: Пикассо / Genius: Picasso / Сезон: 2 / Серии: 1-4 из 10 (Кеннет Биллер, Джеймс Хоуз, Кевин Хукс) [2018, США, Драма, биография, история, WEBRip 720p] DVO (Gears Media) + Original Galfimbul 64912818586.05 GB 0 0 1524786493

02:48

27-Апр-18

Еще никто не оставлял запись к записи скачать торрент Гений Genius . Будь первым!

!Обратная связь