Скачать через торрент Гений Genius Фильм бесплатно в хорошем качестве torrent

Скачивайте на UnionPeer.org фильмы через торрент без регистрации. Новинки кино в хорошем качестве через торрент. На UnionPeer.org можно скачать через торрент фильмы 2014 и 2015 годов. Самые новые фильмы.

Скачать торрент Гений Genius бесплатно через .torrent фильм мультфильм сериал

Статистика раздачи
Размер:  1.25 GB   |    Зарегистрирован:  6 лет 9 месяцев   |    .torrent скачан:  46 раз   |   
Раздают:  1  
 

Скачать Гений / Genius / Сезон: 1 / Серии: 1 из 10 (Джеймс Хоуз, Минки Спиро, Рон Ховард) [2017, США, Драма, биография, история., HDTVRip 720p] MVO (Jaskier) + Original через torrent

 
 
Автор Сообщение

Galfimbul

avatar Galfimbul



Гений| Genius

<var class="postImg postImgAligned img-right" title="https://i90.fastpic.ru/big/2017/0426/ae/db899dc8edc...ae.jpg">
</var>Год выпуска: 2017
Страна: США
Жанр: Драма, биография, история
Продолжительность: ~ 00:59:00
Перевод: Профессиональный (многоголосый закадровый) | Jaskier
Режиссёр: Джеймс Хоуз, Минки Спиро, Рон Ховард
В ролях: Джеффри Раш, Джонни Флинн, Николас Роу, Саманта Колли, Джон Флетчер, Алисия фон Риттберг, Сильвия Бухбайер, Т.Р. Найт, Люси Расселл и др.
Описание: Сериал о том, как Эйнштейн в молодости не мог получить работу преподавателя, и как он пришёл к теории относительности.

| |
Качество: HDTVRip 720p
Формат: MKV
Видео: 1280x640 (2,000) | X264 | ~2100 kbps | 25 fps
Аудио 1: AC3 | 48 KHz | 5.1 (Front: L С R Side: L R) + LFE | ~384 kbps [RUS]
Аудио 2: AC3 | 48 KHz | 5.1 (Front: L С R Side: L R) + LFE | ~384 kbps [ENG]
Субтитры: нет
Реклама: Присутствует звуковая (два раза в начале и конце по 12 сек.)
Переведено и озвучено: студией Jaskier
Общее
Уникальный идентификатор                 : 213556654972176760528568740573558593869 (0xA0A984028464C18FB081F197098FD94D)
Полное имя                               : H:\Ясы-сериалы\Genius. Season 1 (HDTVRip l 720p l Jaskier)\Genius.s01e01.720p.HDTVRip.x264-JASKiER.mkv
Формат                                   : Matroska
Версия формата                           : Version 2
Размер файла                             : 1,25 Гбайт
Продолжительность                        : 1 ч. 1 м.
Общий поток                              : 2892 Кбит/сек
Дата кодирования                         : UTC 2017-04-26 14:05:20
Программа кодирования                    : mkvmerge v7.8.0 ('River Man') 32bit built on Apr  3 2015 12:11:22
Библиотека кодирования                   : libebml v1.3.1 + libmatroska v1.4.2

Видео
Идентификатор                            : 1
Формат                                   : AVC
Формат/Информация                        : Advanced Video Codec
Профиль формата                          : [email protected]
Параметр CABAC формата                   : Да
Параметр ReFrames формата                : 5 кадров
Идентификатор кодека                     : V_MPEG4/ISO/AVC
Продолжительность                        : 1 ч. 1 м.
Битрейт                                  : 2066 Кбит/сек
Ширина                                   : 1280 пикселей
Высота                                   : 640 пикселей
Соотношение сторон                       : 2,000
Режим частоты кадров                     : Постоянный
Частота кадров                           : 25,000 кадров/сек
Цветовое пространство                    : YUV
Субдискретизация насыщенности            : 4:2:0
Битовая глубина                          : 8 бит
Тип развёртки                            : Прогрессивная
Бит/(Пиксели*Кадры)                      : 0.101
Размер потока                            : 915 Мбайт (71%)
Библиотека кодирования                   : x264 core 148 r2762 90a61ec
Настройки программы                      : cabac=1 / ref=5 / deblock=1:0:0 / analyse=0x3:0x113 / me=hex / subme=8 / psy=1 / psy_rd=1.00:0.00 / mixed_ref=1 / me_range=16 / chroma_me=1 / trellis=2 / 8x8dct=1 / cqm=0 / deadzone=21,11 / fast_pskip=1 / chroma_qp_offset=-2 / threads=12 / lookahead_threads=2 / sliced_threads=0 / nr=0 / decimate=1 / interlaced=0 / bluray_compat=0 / constrained_intra=0 / bframes=3 / b_pyramid=2 / b_adapt=1 / b_bias=0 / direct=3 / weightb=1 / open_gop=0 / weightp=2 / keyint=250 / keyint_min=25 / scenecut=40 / intra_refresh=0 / rc_lookahead=50 / rc=crf / mbtree=1 / crf=18.0 / qcomp=0.60 / qpmin=0 / qpmax=69 / qpstep=4 / ip_ratio=1.40 / aq=1:1.00
Язык                                     : English
Default                                  : Да
Forced                                   : Нет
Цветовой диапазон                        : Limited
Коэффициенты матрицы                     : BT.709

Аудио #1
Идентификатор                            : 2
Формат                                   : AC-3
Формат/Информация                        : Audio Coding 3
Расширение режима                        : CM (complete main)
Параметр Endianness формата              : Big
Идентификатор кодека                     : A_AC3
Продолжительность                        : 1 ч. 1 м.
Вид битрейта                             : Постоянный
Битрейт                                  : 384 Кбит/сек
Каналы                                   : 6 каналов
Расположение каналов                     : Front: L C R, Side: L R, LFE
Частота                                  : 48,0 КГц
Частота кадров                           : 31,250 кадров/сек (1536 spf)
Битовая глубина                          : 16 бит
Метод сжатия                             : С потерями
Размер потока                            : 170 Мбайт (13%)
Заголовок                                : Jaskier
Язык                                     : Russian
Default                                  : Да
Forced                                   : Нет

Аудио #2
Идентификатор                            : 3
Формат                                   : AC-3
Формат/Информация                        : Audio Coding 3
Расширение режима                        : CM (complete main)
Параметр Endianness формата              : Big
Идентификатор кодека                     : A_AC3
Продолжительность                        : 1 ч. 1 м.
Вид битрейта                             : Постоянный
Битрейт                                  : 384 Кбит/сек
Каналы                                   : 6 каналов
Расположение каналов                     : Front: L C R, Side: L R, LFE
Частота                                  : 48,0 КГц
Частота кадров                           : 31,250 кадров/сек (1536 spf)
Битовая глубина                          : 16 бит
Метод сжатия                             : С потерями
Размер потока                            : 170 Мбайт (13%)
Язык                                     : English
Default                                  : Нет
Forced                                   : Нет
Когда раздача ведётся путём добавления новых серий, при каждом добавлении создётся новый торрент. Чтобы начать докачку новой серии, пользователям необходимо сделать следующее:
(1) остановить скачивание,
(2) удалить старый торрент у себя из клиента (старые серии удалять не надо),
(3) скачать новый торрент и запустить его у себя в клиенте вместо старого, при этом указать клиенту путь в старую папку, куда и должно происходить скачивание новых серий.
Ваш клиент при этом должен произвести хеширование (проверку) старой папки (если не производит сам - помогите ему сделать это), и будет докачивать только те серии, которых у вас ещё нет. Старые серии при этом не удаляются, а продолжают раздаваться!
Eсли вы уже удалили старые серии, то предотвратить повторную закачку старых серий можно, отжав галочку в соответсвующих местах при запуске нового торрента. По возможности, желательно не удалять старые серии как можно дольше, чтобы релизёр не столько продолжал раздавать старые серии, а смог сконцентрироваться на новых.



Внимание! AdBlock блокирует показ скриншотов, все вопросы к разработчикам )))
Трекер:  [ 26-Апр-2017 16:30 ]

  

Скачать .torrent

Размер .torrent файла 13 KB


Размер: 1.25 GB
Хэш (hash) релиза: 8a3e3035e337028009e7db8d86d06900fdf94a57
Подписка на обновления:

Торренты, похожие на Гений Genius скачать торрент

Форум Название Автор Размер S L Добавлен
Зарубежные сериалы ·· Гений / Genius / Сезон: 1 / Серии: 1 из 10 (Джеймс Хоуз, Минки Спиро, Рон Ховард) [2017, США, драма, биография, история, HDTVRip 720p] Original + Rus Sub (by Outbreak) Galfimbul 11645100061.08 GB 0 0 1493203877

13:51

26-Апр-17

Зарубежные сериалы ·· Гений / Genius / Сезон: 1 / Серии: 10 из 10 (Джеймс Хоуз, Минки Спиро, Рон Ховард) [2017, США, Драма, биография, история, WEB-DLRip] MVO (National Geographic) Galfimbul 87861557328.18 GB 2 0 1503305549

11:52

21-Авг-17

Зарубежные сериалы ·· Гений / Genius / Сезон: 1 / Серии: 1-7 из 10 (Джеймс Хоуз, Минки Спиро, Рон Ховард) [2017, США, Драма, биография, история., HDTVRip] MVO (Jaskier) + Original Galfimbul 45662924804.25 GB 0 0 1497033876

21:44

9-Июн-17

Зарубежные сериалы ·· Гений / Genius / Сезон: 1 / Серии: 1-7 из 10 (Джеймс Хоуз, Минки Спиро, Рон Ховард) [2017, США, Драма, биография, история., HDTVRip 720p] MVO (Jaskier) + Original Galfimbul 69834554016.5 GB 0 0 1496957186

00:26

9-Июн-17

Зарубежные сериалы ·%· Гений: Пикассо / Genius: Picasso / Сезон: 2 / Серии: 1-10 из 10 (Кеннет Биллер, Джеймс Хоуз, Кевин Хукс) [2018, США, Драма, биография, история., WEBRip l 720p] MVO (Good People) + Original + Sub (eng) Galfimbul 1427674665713.3 GB 0 0 1531882093

05:48

18-Июл-18

Зарубежные сериалы ·%· Гений: Пикассо / Genius: Picasso / Сезон: 2 / Серии: 1-7 из 10 (Кеннет Биллер, Джеймс Хоуз, Кевин Хукс) [2018, США, Драма, биография, история., WEB-DLRip] MVO (Good People) + Original Galfimbul 44074025224.1 GB 0 0 1531649892

13:18

15-Июл-18

Зарубежные сериалы ·· Гений: Пикассо / Genius: Picasso / Сезон: 2 / Серии: 1-8 из 10 (Джеймс Хоуз, Минки Спиро, Рон Ховард) [2018, США, Драма, биография, история., WEB-DL 1080p] MVO (Jaskier) + Original + Sub Eng Galfimbul 2646950274124.65 GB 0 0 1527950901

17:48

2-Июн-18

Зарубежные сериалы ·· Гений: Пикассо / Genius: Picasso / Сезон: 2 / Серии: 1-3 из 10 (Джеймс Хоуз, Минки Спиро, Рон Ховард) [2018, США, Драма, биография, история., WEB-DL 720p] MVO (Jaskier) + Original + Sub Eng Galfimbul 34079179293.17 GB 0 0 1526464103

12:48

16-Май-18

Зарубежные сериалы ·· Гений: Пикассо / Genius: Picasso / Сезон: 2 / Серии: 1-3 из 10 (Кеннет Биллер, Джеймс Хоуз, Кевин Хукс) [2018, США, Драма, биография, история., WEB-DLRip] MVO (Jaskier) + Original Galfimbul 18892738561.76 GB 0 0 1526464087

12:48

16-Май-18

Зарубежные сериалы ·· Гений: Пикассо / Genius: Picasso / Сезон: 2 / Серии: 1-4 из 10 (Кеннет Биллер, Джеймс Хоуз, Кевин Хукс) [2018, США, Драма, биография, история, WEBRip] DVO (Gears Media) + Original Galfimbul 23168777462.16 GB 0 0 1524788289

03:18

27-Апр-18

Зарубежные сериалы ·· Гений: Пикассо / Genius: Picasso / Сезон: 2 / Серии: 1-4 из 10 (Кеннет Биллер, Джеймс Хоуз, Кевин Хукс) [2018, США, Драма, биография, история, WEBRip 720p] DVO (Gears Media) + Original Galfimbul 64912818586.05 GB 0 0 1524786493

02:48

27-Апр-18

Еще никто не оставлял запись к записи скачать торрент Гений Genius . Будь первым!

!Обратная связь