Скачать через торрент Нервы на пределе High Strung Фильм бесплатно в хорошем качестве torrent

Скачивайте на UnionPeer.org фильмы через торрент без регистрации. Новинки кино в хорошем качестве через торрент. На UnionPeer.org можно скачать через торрент фильмы 2014 и 2015 годов. Самые новые фильмы.

Скачать торрент Нервы на пределе High Strung бесплатно через .torrent фильм мультфильм сериал

Статистика раздачи
Размер:  5.35 GB   |    Зарегистрирован:  6 лет 10 месяцев   |    .torrent скачан:  143 раза   |   
Раздают:  1  
 

Скачать Нервы на пределе / High Strung (Майкл Дамиан) [2016, драма, мелодрама, музыка, BDRip 720p] iTunes через torrent

 
 
Автор Сообщение

Galfimbul

avatar Galfimbul


Нервы на пределе /High Strung

Год выхода: 2016
Жанр: драма, мелодрама, музыка
Режиссер: Майкл Дамиан
В ролях: Кинан Кампа, Николас Голицын, Соноя Мидзуно, Джейн Сеймур, Ричард Саутгейт, Пол Фримен, Маркус Эмануэл Митчелл, Майя Моргенштерн, Анабель Кутай, Джон Сильвер, Иэн Иствуд

О фильме:
Он - скрипач, который вынужден играть в переходах метро, чтобы заработать на жизнь. Она - балерина, которая учится в престижной школе искусств. Казалось бы, при чем тут хип-хоп? Но именно в этом стиле они найдут точки соприкосновения, которые изменят их жизнь навсегда.


Страна: США, Румыния
Студия: Castel Film Studio, Riviera Films, Sforzando Productions
Продолжительность: 01:37:02
Перевод: Профессиональный многоголосый, закадровый (iTunes)

Файл
Кодек: MPEG4 Video (H264)
Качество: BDRip 720p | iTunes
Видео: 1280x536, 6000 Kbps, 24.000fps
Звук:
Аудио 1: AC3, 6 ch, 384 Kbps - Русский (MVO, iTunes)
Аудио 2: DTS, 6 ch, 1509 Kbps - Английский (Оригинал)
Субтитры: Английские

Семпл
Общее
Уникальный идентификатор : 207826799392856278081542620454646537103 (0x9C59FC51925E0E61885DCC4CC7755B8F)
Полное имя : High Strung.2016.BDRip.720p.mkv
Формат : Matroska
Версия формата : Version 2
Размер файла : 5,35 Гбайт
Продолжительность : 1 ч. 37 м.
Общий поток : 7891 Кбит/сек
Название фильма : High Strung.2016.BDRip.720p
Дата кодирования : UTC 2017-04-27 23:06:00
Программа кодирования : mkvmerge v4.0.0 ('The Stars were mine') сборка от Jun 6 2010 16:18:42
Библиотека кодирования : libebml v1.0.0 + libmatroska v1.0.0

Видео
Идентификатор : 1
Формат : AVC
Формат/Информация : Advanced Video Codec
Профиль формата : [email protected]
Параметр CABAC формата : Да
Параметр ReFrames формата : 12 кадров
Идентификатор кодека : V_MPEG4/ISO/AVC
Продолжительность : 1 ч. 37 м.
Битрейт : 6000 Кбит/сек
Ширина : 1280 пикселей
Высота : 536 пикселей
Соотношение сторон : 2,40:1
Режим частоты кадров : Постоянный
Частота кадров : 24,000 кадра/сек
Цветовое пространство : YUV
Субдискретизация насыщенности : 4:2:0
Битовая глубина : 8 бит
Тип развёртки : Прогрессивная
Бит/(Пиксели*Кадры) : 0.364
Размер потока : 3,96 Гбайт (74%)
Библиотека кодирования : x264 core 142 r2431+42 c69a006 tMod [8-bit@all X86_64]
Настройки программы : cabac=1 / ref=12 / deblock=1:-3:-3 / analyse=0x3:0x113 / me=umh / subme=11 / psy=1 / fade_compensate=0.00 / psy_rd=1.05:1.05 / mixed_ref=1 / me_range=48 / chroma_me=1 / trellis=2 / 8x8dct=1 / cqm=0 / deadzone=21,11 / fast_pskip=0 / chroma_qp_offset=-4 / threads=16 / lookahead_threads=2 / sliced_threads=0 / nr=0 / decimate=0 / interlaced=0 / bluray_compat=0 / constrained_intra=0 / fgo=0 / bframes=8 / b_pyramid=2 / b_adapt=2 / b_bias=0 / direct=3 / weightb=1 / open_gop=0 / weightp=2 / keyint=240 / keyint_min=24 / scenecut=40 / intra_refresh=0 / rc_lookahead=100 / rc=2pass / mbtree=0 / bitrate=6000 / ratetol=1.0 / qcomp=0.68 / qpmin=0:0:0 / qpmax=69:69:69 / qpstep=4 / cplxblur=20.0 / qblur=0.5 / vbv_maxrate=300000 / vbv_bufsize=300000 / nal_hrd=none / filler=0 / ip_ratio=1.30 / pb_ratio=1.20 / aq=2:0.78 / aq-sensitivity=10.00 / aq-factor=1.00:1.00:1.00 / aq2=0 / aq3=0
Язык : English
Default : Нет
Forced : Нет
Цветовой диапазон : Limited
Основные цвета : BT.709
Характеристики трансфера : BT.709
Коэффициенты матрицы : BT.709

Аудио #1
Идентификатор : 2
Формат : AC-3
Формат/Информация : Audio Coding 3
Параметр Endianness формата : Big
Идентификатор кодека : A_AC3
Продолжительность : 1 ч. 37 м.
Вид битрейта : Постоянный
Битрейт : 384 Кбит/сек
Каналы : 6 каналов
Расположение каналов : Front: L C R, Side: L R, LFE
Частота : 48,0 КГц
Частота кадров : 31,250 кадров/сек (1536 spf)
Битовая глубина : 16 бит
Метод сжатия : С потерями
Размер потока : 267 Мбайт (5%)
Заголовок : MVO | iTunes
Язык : Russian
ServiceKind : Complete Main
Default : Да
Forced : Нет

Аудио #2
Идентификатор : 3
Формат : DTS
Формат/Информация : Digital Theater Systems
Режим : 16
Параметр Endianness формата : Big
Идентификатор кодека : A_DTS
Продолжительность : 1 ч. 37 м.
Вид битрейта : Постоянный
Битрейт : 1509 Кбит/сек
Каналы : 6 каналов
Расположение каналов : Front: L C R, Side: L R, LFE
Частота : 48,0 КГц
Частота кадров : 93,750 кадра/сек (512 spf)
Битовая глубина : 24 бит
Метод сжатия : С потерями
Задержка видео : 11 мс.
Размер потока : 1,02 Гбайт (19%)
Язык : English
Default : Нет
Forced : Нет

Текст
Идентификатор : 4
Формат : UTF-8
Идентификатор кодека : S_TEXT/UTF8
Идентификатор кодека/Информация : UTF-8 Plain Text
Заголовок : Full
Язык : English
Default : Нет
Forced : Нет

Меню
00:00:00.000 : en:00:00:00.000
00:10:32.083 : en:00:10:32.083
00:21:10.125 : en:00:21:10.125
00:28:31.667 : en:00:28:31.667
00:39:16.250 : en:00:39:16.250
00:45:14.542 : en:00:45:14.542
00:53:56.375 : en:00:53:56.375
01:02:46.042 : en:01:02:46.042
01:11:06.292 : en:01:11:06.292
01:16:58.792 : en:01:16:58.792
01:22:19.583 : en:01:22:19.583
01:31:18.625 : en:01:31:18.625


Внимание! AdBlock блокирует показ скриншотов, все вопросы к разработчикам )))
Трекер:  [ 28-Апр-2017 03:00 ]

  

Скачать .torrent

Размер .torrent файла 27 KB


Размер: 5.35 GB
Хэш (hash) релиза: 24f3cd7fe593eda78cd46292b0daa4bd4acc5d8c
Подписка на обновления:

Еще никто не оставлял запись к записи скачать торрент Нервы на пределе High Strung . Будь первым!

!Обратная связь