Скачать через торрент Прочь Get Out Фильм бесплатно в хорошем качестве torrent

Скачивайте на UnionPeer.org фильмы через торрент без регистрации. Новинки кино в хорошем качестве через торрент. На UnionPeer.org можно скачать через торрент фильмы 2014 и 2015 годов. Самые новые фильмы.

Скачать торрент Прочь Get Out бесплатно через .torrent фильм мультфильм сериал

Статистика раздачи
Размер:  1.46 GB   |    Зарегистрирован:  6 лет 9 месяцев   |    .torrent скачан:  267 раз   |   
Раздают:  1  
 

Скачать Прочь / Get Out (Джордан Пил / Jordan Peele) [2017, США, триллер, детектив, WEB-DLRip] MVO (AlexFilm) + Original Eng через torrent

 
 
Автор Сообщение

Galfimbul

avatar Galfimbul


Прочь / Get Out

Страна: США
Жанр: триллер, детектив
Год выпуска: 2017
Продолжительность: 01:44:05

Перевод: Профессиональный (многоголосый закадровый) AlexFilm
Cубтитры: нет
Оригинальная аудиодорожка: английский

Режиссер: Джордан Пил / Jordan Peele

В ролях: Дэниэл Калуя, Эллисон Уильямс, Кэтрин Кинер, Брэдли Уитфорд, Калеб Лэндри Джонс, Маркус Хендерсон, Бетти Гэбриел

Описание: Знакомство с родителями подружки не предвещает молодому фотографу из Нью-Йорка ничего хорошего, ведь семья девушки принадлежит к элитному обществу и живет в уединенном загородном доме. Если бы он только знал истинную причину своего приглашения, то немедленно бросился бы прочь…

Сэмпл: http://multi-up.com/1153251

Качество видео: WEB-DLRip
Формат видео: AVI

Видео: 720x304 (2.37:1), 23.976 fps, XviD build 73 ~1615 kbps avg, 0.31 bit/pixel
Аудио: 48 kHz, AC3 Dolby Digital, 2/0 (L,R) ch, ~192 kbps - MVO
Аудио 2: 48 kHz, AC3 Dolby Digital, 2/0 (L,R) ch, ~192 kbps - Original
Format : AVI
Format/Info : Audio Video Interleave
File size : 1.46 GiB
Duration : 1 h 44 min
Overall bit rate : 2 010 kb/s

Video
ID : 0
Format : MPEG-4 Visual
Format profile : Advanced Simple@L5
Format settings, BVOP : 1
Format settings, QPel : No
Format settings, GMC : No warppoints
Format settings, Matrix : Custom
Codec ID : XVID
Codec ID/Hint : XviD
Duration : 1 h 44 min
Bit rate : 1 616 kb/s
Width : 720 pixels
Height : 304 pixels
Display aspect ratio : 2.35:1
Frame rate : 23.976 (24000/1001) FPS
Color space : YUV
Chroma subsampling : 4:2:0
Bit depth : 8 bits
Scan type : Progressive
Compression mode : Lossy
Bits/(Pixel*Frame) : 0.308
Stream size : 1.17 GiB (80%)
Writing library : XviD 73

Audio #1
ID : 1
Format : AC-3
Format/Info : Audio Coding 3
Mode extension : CM (complete main)
Format settings, Endianness : Big
Codec ID : 2000
Duration : 1 h 44 min
Bit rate mode : Constant
Bit rate : 192 kb/s
Channel(s) : 2 channels
Channel positions : Front: L R
Sampling rate : 48.0 kHz
Frame rate : 31.250 FPS (1536 spf)
Compression mode : Lossy
Stream size : 143 MiB (10%)
Alignment : Aligned on interleaves
Interleave, duration : 64 ms (1.53 video frames)
Interleave, preload duration : 192 ms
Title : MVO

Audio #2
ID : 2
Format : AC-3
Format/Info : Audio Coding 3
Mode extension : CM (complete main)
Format settings, Endianness : Big
Codec ID : 2000
Duration : 1 h 44 min
Bit rate mode : Constant
Bit rate : 192 kb/s
Channel(s) : 2 channels
Channel positions : Front: L R
Sampling rate : 48.0 kHz
Frame rate : 31.250 FPS (1536 spf)
Compression mode : Lossy
Stream size : 143 MiB (10%)
Alignment : Aligned on interleaves
Interleave, duration : 64 ms (1.53 video frames)
Interleave, preload duration : 192 ms
Title : Original


Внимание! AdBlock блокирует показ скриншотов, все вопросы к разработчикам )))
Трекер:  [ 10-Май-2017 19:30 ]

  

Скачать .torrent

Размер .torrent файла 15 KB


Размер: 1.46 GB
Хэш (hash) релиза: 5d7be5c03a144b762f3fc3ecb669dc12c505c6af
Подписка на обновления:

Торренты, похожие на Прочь Get Out скачать торрент

Форум Название Автор Размер S L Добавлен
Зарубежные фильмы 2016-2019 (Новинки зарубежного кино) ·%· Прочь / Get Out (2017) BDRip 1080p от TeamHD | D, P, A | Лицензия Galfimbul 1644141280615.31 GB 0 0 1545028845

09:40

17-Дек-18

Зарубежные фильмы до 2016 ·%· Прочь / Get Out (Джордан Пил / Jordan Peele) [2017, Япония, США, Ужасы, детектив, триллер, DVD5 (сжатый)] исх. R5, Dub + Sub Rus + Original Eng Galfimbul 46903398404.37 GB 0 0 1531252921

23:02

10-Июл-18

Зарубежные фильмы до 2016 ·· Прочь / Get Out (Джордан Пил / Jordan Peele) [2017, Япония, США, Ужасы, детектив, триллер, DVD9] R5 Dub + Sub Rus + Original Eng Galfimbul 76161167367.09 GB 0 0 1524756655

18:30

26-Апр-18

Зарубежные фильмы 2016-2019 (Новинки зарубежного кино) ·· Прочь / Get Out (Джордан Пил / Jordan Peele) [2017, США, ужасы, детектив, триллер, BDRip] AVO (Андрей Гаврилов) Galfimbul 15814369281.47 GB 0 0 1520420473

14:01

7-Мар-18

Трейлеры и дополнительные материалы ·· Прочь / Get Out (Джордан Пил) [2017, Ужасы | Детектив, BDRip 720p] дополнительные материалы Galfimbul 12704881211.18 GB 0 0 1504512531

11:08

4-Сен-17

Зарубежные фильмы 2016-2019 (Новинки зарубежного кино) ·· Прочь / Get Out (Джордан Пил / Jordan Peele) [2017, США, ужасы, детектив, BDRip] Dub (EUR) + Original (Eng) + Sub (Rus, Eng) Galfimbul 23437387712.18 GB 0 0 1504081810

11:30

30-Авг-17

Зарубежные фильмы 2016-2019 (Новинки зарубежного кино) ·· Прочь / Get Out (Джордан Пил / Jordan Peele) [2017, США, ужасы, детектив, BDRip-AVC] Dub + MVO + Original Eng + Sub Rus, Eng Galfimbul 23361619842.18 GB 0 0 1503849737

19:02

27-Авг-17

Зарубежные фильмы 2016-2019 (Новинки зарубежного кино) ·· Прочь / Get Out (Джордан Пил / Jordan Peele) [2017, США, ужасы, детектив,Blu-Ray CEE 1080p] Лицензия Galfimbul 4257722830639.65 GB 0 0 1503589220

18:40

24-Авг-17

Зарубежные фильмы 2016-2019 (Новинки зарубежного кино) ·· Прочь / Get Out (Джордан Пил / Jordan Peele) [2017, США, ужасы, детектив, BDRip 1080p] Лицензия, P Galfimbul 1401360569713.05 GB 0 0 1503577219

15:20

24-Авг-17

Зарубежные фильмы 2016-2019 (Новинки зарубежного кино) ·· Прочь / Get Out (Джордан Пил / Jordan Peele) [2017, США, ужасы, детектив, BDRip 720p] Лицензия, P Galfimbul 67120299546.25 GB 0 0 1503571211

13:40

24-Авг-17

Зарубежные фильмы 2016-2019 (Новинки зарубежного кино) ·· Прочь / Get Out (Джордан Пил / Jordan Peele) [2017, США, ужасы, детектив, BDRip] Dub Galfimbul 785418240749 MB 0 0 1499603415

15:30

9-Июл-17

Зарубежные фильмы 2016-2019 (Новинки зарубежного кино) ·· Прочь / Get Out (Джордан Пил / Jordan Peele) [2017, США, ужасы, детектив, BDRip-AVC] Dub Galfimbul 781529373745 MB 0 0 1499601692

15:01

9-Июл-17

Зарубежные фильмы 2016-2019 (Новинки зарубежного кино) ·· Прочь / Get Out (Джордан Пил / Jordan Peele) [2017, США, ужасы, детектив, BDRip-AVC] Dub Galfimbul 15501911121.44 GB 0 0 1499601686

15:01

9-Июл-17

Зарубежные фильмы до 2016 ·· Прочь / Get Out (Джордан Пил / Jordan Peele) [2017, США, ужасы, триллер, BDRip 720p] Dub (iTunes) + MVO (AlexFilm) + Sub Rus, Eng + Original Eng Galfimbul 64118488155.97 GB 0 0 1499425553

14:05

7-Июл-17

Зарубежные фильмы 2016-2019 (Новинки зарубежного кино) ·· Прочь / Get Out (Джордан Пил / Jordan Peele) [2017, США, ужасы, детектив, BDRip] Dub Galfimbul 15665438721.46 GB 0 0 1499414478

11:01

7-Июл-17

Зарубежные фильмы 2016-2019 (Новинки зарубежного кино) ·· Прочь / Get Out (Джордан Пил / Jordan Peele) [2017, США, триллер, детектив, WEB-DLRip] MVO (AlexFilm) Galfimbul 782866360747 MB 0 0 1494435836

20:03

10-Май-17

Зарубежные фильмы 2016-2019 (Новинки зарубежного кино) ·· Прочь / Get Out (Джордан Пил) [2017, ужасы, детектив, WEBRip 720p] Galfimbul 30236603882.82 GB 0 0 1493410158

23:09

28-Апр-17

Зарубежные фильмы 2016-2019 (Новинки зарубежного кино) ·· Прочь / Get Out (Джордан Пил) [2017, ужасы, детектив, WEBRip 1080p] Galfimbul 37797145953.52 GB 0 0 1492938951

12:15

23-Апр-17

Зарубежные фильмы 2016-2019 (Новинки зарубежного кино) ·· Прочь / Get Out (Джордан Пил) [2017, ужасы, детектив, WEBRip] Galfimbul 14676418561.37 GB 0 0 1492929708

09:41

23-Апр-17

Еще никто не оставлял запись к записи скачать торрент Прочь Get Out . Будь первым!

!Обратная связь