Скачать через торрент Конвой Konwoj Фильм бесплатно в хорошем качестве torrent

Скачивайте на UnionPeer.org фильмы через торрент без регистрации. Новинки кино в хорошем качестве через торрент. На UnionPeer.org можно скачать через торрент фильмы 2014 и 2015 годов. Самые новые фильмы.

Скачать торрент Конвой Konwoj бесплатно через .torrent фильм мультфильм сериал

Статистика раздачи
Размер:  7.93 GB   |    Зарегистрирован:  6 лет 11 месяцев   |    .torrent скачан:  111 раз   |   
Раздают:  1  
 

Скачать Конвой / Konwoj (Мацей Зак) [2016, Триллер, BDRip 1080p] через torrent

 
 
Автор Сообщение

Galfimbul

avatar Galfimbul


Производство: Польша, Profil Film
Жанр: Триллер

Режиссер: Мацей Зак
Актеры: Януш Гайос, Роберт Вечкевич, Пжемыслав Блущ, Лукаш Симлат, Ирениуш Чоп, Томаш Зетэк, Агнешка Жулевска, Дорота Коляк, Марек Калита, Збигнев Стрый

Описание:
Конвой перевозит очередного убийцу, когда случайно выяснятся, что это другой человек и который не должен доехать до места назначения живым.Но не все в конвое знают об этом.


Дата мировой премьеры: 13 января 2017
Дата российской премьеры: Неизвестно
Продолжительность: 01:31:03
Качество видео: BDRip
Перевод: Любительский, одноголосый [Хихикающий доктор]
Субтитры: Английские
Реклама: перед фильмом голосовая реклама.
Видео: AVC/H.264, 1920х856, ~8805 Kbps
Аудио 1: Русский (DTS, 6 ch, 1510 Кбит/с)
Аудио 2:Русский (АС3, 6 ch, 640 Кбит/с)
Аудио 3: Английский (DTS, 6 ch, 1509 Кбит/с)

Семпл
Общее
Уникальный идентификатор : 178653705500647495753438695020296881605 (0x866773BD7A2DCE27BBB65E180D0B45C5)
Полное имя : E:MMMMKonwoj.2017.1080p.BDRip.x264.mkv
Формат : Matroska
Версия формата : Version 4 / Version 2
Размер файла : 7,93 Гбайт
Продолжительность : 1 ч. 31 м.
Общий поток : 12,5 Мбит/сек
Дата кодирования : UTC 2017-05-17 12:28:26
Программа кодирования : mkvmerge v6.9.1 ('Blue Panther') 64bit built on Apr 18 2014 18:23:38
Библиотека кодирования : libebml v1.3.0 + libmatroska v1.4.1

Видео
Идентификатор : 1
Формат : AVC
Формат/Информация : Advanced Video Codec
Профиль формата : [email protected]
Параметр CABAC формата : Да
Параметр ReFrames формата : 5 кадров
Идентификатор кодека : V_MPEG4/ISO/AVC
Продолжительность : 1 ч. 31 м.
Битрейт : 8805 Кбит/сек
Ширина : 1920 пикселей
Высота : 856 пикселей
Соотношение сторон : 2,25:1
Режим частоты кадров : Постоянный
Частота кадров : 24,000 кадра/сек
Цветовое пространство : YUV
Субдискретизация насыщенности : 4:2:0
Битовая глубина : 8 бит
Тип развёртки : Прогрессивная
Бит/(Пиксели*Кадры) : 0.223
Размер потока : 5,45 Гбайт (69%)
Библиотека кодирования : x264 core 148 r2744 b97ae06
Настройки программы : cabac=1 / ref=5 / deblock=1:0:0 / analyse=0x3:0x2 / me=umh / subme=9 / psy=1 / psy_rd=1.00:0.00 / mixed_ref=1 / me_range=16 / chroma_me=1 / trellis=1 / 8x8dct=1 / cqm=0 / deadzone=21,11 / fast_pskip=1 / chroma_qp_offset=-2 / threads=16 / lookahead_threads=1 / sliced_threads=0 / nr=0 / decimate=1 / interlaced=0 / bluray_compat=0 / constrained_intra=0 / bframes=3 / b_pyramid=2 / b_adapt=2 / b_bias=0 / direct=1 / weightb=1 / open_gop=0 / weightp=2 / keyint=240 / keyint_min=24 / scenecut=40 / intra_refresh=0 / rc_lookahead=40 / rc=2pass / mbtree=1 / bitrate=8805 / ratetol=1.0 / qcomp=0.60 / qpmin=10 / qpmax=51 / qpstep=4 / cplxblur=20.0 / qblur=0.5 / vbv_maxrate=40000 / vbv_bufsize=30000 / nal_hrd=none / filler=0 / ip_ratio=1.40 / aq=1:1.00
Default : Да
Forced : Нет

Аудио #1
Идентификатор : 2
Формат : DTS
Формат/Информация : Digital Theater Systems
Режим : 16
Параметр Endianness формата : Big
Идентификатор кодека : A_DTS
Продолжительность : 1 ч. 31 м.
Вид битрейта : Постоянный
Битрейт : 1510 Кбит/сек
Каналы : 6 каналов
Расположение каналов : Front: L C R, Side: L R, LFE
Частота : 48,0 КГц
Частота кадров : 93,750 кадра/сек (512 spf)
Битовая глубина : 24 бит
Метод сжатия : С потерями
Размер потока : 983 Мбайт (12%)
Заголовок : Xixidoktor
Язык : Russian
Default : Да
Forced : Нет

Аудио #2
Идентификатор : 3
Формат : AC-3
Формат/Информация : Audio Coding 3
Расширение режима : CM (complete main)
Параметр Endianness формата : Big
Идентификатор кодека : A_AC3
Продолжительность : 1 ч. 31 м.
Вид битрейта : Постоянный
Битрейт : 640 Кбит/сек
Каналы : 6 каналов
Расположение каналов : Front: L C R, Side: L R, LFE
Частота : 48,0 КГц
Частота кадров : 31,250 кадров/сек (1536 spf)
Метод сжатия : С потерями
Размер потока : 417 Мбайт (5%)
Заголовок : xixidoktor
Язык : Russian
Default : Нет
Forced : Нет

Аудио #3
Идентификатор : 4
Формат : DTS
Формат/Информация : Digital Theater Systems
Режим : 16
Параметр Endianness формата : Big
Идентификатор кодека : A_DTS
Продолжительность : 1 ч. 31 м.
Вид битрейта : Постоянный
Битрейт : 1509 Кбит/сек
Каналы : 6 каналов
Расположение каналов : Front: L C R, Side: L R, LFE
Частота : 48,0 КГц
Частота кадров : 93,750 кадра/сек (512 spf)
Битовая глубина : 24 бит
Метод сжатия : С потерями
Размер потока : 983 Мбайт (12%)
Заголовок : original
Язык : Polish
Default : Нет
Forced : Нет

Текст
Идентификатор : 5
Формат : UTF-8
Идентификатор кодека : S_TEXT/UTF8
Идентификатор кодека/Информация : UTF-8 Plain Text
Язык : English
Default : Нет
Forced : Нет


Внимание! AdBlock блокирует показ скриншотов, все вопросы к разработчикам )))

Трекер:  [ 17-Май-2017 17:00 ]

  

Скачать .torrent

Размер .torrent файла 20 KB


Размер: 7.93 GB
Хэш (hash) релиза: f41db7b35693add17e3803c2a36e3f3f396a8c52
Подписка на обновления:

Еще никто не оставлял запись к записи скачать торрент Конвой Konwoj . Будь первым!

!Обратная связь