Скачать через торрент Маяк китов El faro de las orcas Фильм бесплатно в хорошем качестве torrent

Скачивайте на UnionPeer.org фильмы через торрент без регистрации. Новинки кино в хорошем качестве через торрент. На UnionPeer.org можно скачать через торрент фильмы 2014 и 2015 годов. Самые новые фильмы.

Скачать торрент Маяк китов El faro de las orcas бесплатно через .torrent фильм мультфильм сериал

Статистика раздачи
Размер:  1.61 GB   |    Зарегистрирован:  6 лет 10 месяцев   |    .torrent скачан:  60 раз   |   
Раздают:  1  
 

Скачать Маяк китов / El faro de las orcas (Херардо Оливарес / Gerardo Olivares) [2016, Испания, Аргентина, драма, HDRip] VO + Sub Rus + Original Spa через torrent

 
 
Автор Сообщение

Galfimbul

avatar Galfimbul


Маяк китов / El faro de las orcas

Страна: Испания, Аргентина
Жанр: драма
Год выпуска: 2016
Продолжительность: 01:50:27

Перевод: Одноголосый закадровый
Cубтитры: русские (Ольга Соколова (Группа "Мир испанских сериалов"))
Оригинальная аудиодорожка: испанский

Режиссер: Херардо Оливарес / Gerardo Olivares

В ролях: Марибель Верду, Хоакин Фуррьель, Хоакин Рапалини, Ана Селентано, Чиро Миро, Освальдо Санторо, Федерико Барга

Описание: Лола, мать одиннадцатилетнего Тристана, готова отправиться на край земли ради сына, страдающего аутизмом. Они направляются в Аргентину, на полуостров Вальдес, чтобы встретиться с Бето, смотрителем национального парка. Лола надеется, что благодаря своим особым взаимоотношениям с дикими косатками он сможет помочь её сыну выйти из замкнутого внутреннего мира.

Доп. информация: Фильм взят отсюда ...5402643

Сэмпл: http://multi-up.com/1155062

Качество видео: HDRip
Формат видео: AVI

Видео: 720x304 (2.37:1), 24.000 fps, XviD build 67 ~1401 kbps avg, 0.27 bit/pixel
Аудио 1: 48 kHz, AC3 Dolby Digital, 2/0 (L,R) ch, ~224.00 kbps avg (Русский)
Аудио 2: 48 kHz, AC3 Dolby Digital, 3/2 (L,C,R,l,r) + LFE ch, ~448.00 kbps avg(Испанский)
Формат субтитров: softsub (SRT)
Общее
Полное имя : F:\С моей озвучкой\Маяк китов\El faro de las orcas.avi
Формат : AVI
Формат/Информация : Audio Video Interleave
Размер файла : 1,61 Гбайт
Продолжительность : 1 ч. 50 м.
Общий поток : 2088 Кбит/сек
Программа кодирования : VirtualDubModRus 1.5.10.2 (build 2542/release)
Библиотека кодирования : VirtualDubMod build 2542/release

Видео
Идентификатор : 0
Формат : MPEG-4 Visual
Профиль формата : Advanced Simple@L5
Параметр BVOP формата : 2
Параметр QPel формата : Нет
Параметр GMC формата : Без точки перехода
Параметр матрицы формата : Default (MPEG)
Идентификатор кодека : XVID
Идентификатор кодека/Подсказка : XviD
Продолжительность : 1 ч. 50 м.
Битрейт : 1402 Кбит/сек
Ширина : 720 пикселей
Высота : 304 пикселя
Соотношение сторон : 2,35:1
Частота кадров : 24,000 кадра/сек
Цветовое пространство : YUV
Субдискретизация насыщенности : 4:2:0
Битовая глубина : 8 бит
Тип развёртки : Прогрессивная
Метод сжатия : С потерями
Бит/(Пиксели*Кадры) : 0.267
Размер потока : 1,08 Гбайт (67%)
Библиотека кодирования : XviD 67

Аудио #1
Идентификатор : 1
Формат : AC-3
Формат/Информация : Audio Coding 3
Параметр Endianness формата : Big
Идентификатор кодека : 2000
Продолжительность : 1 ч. 50 м.
Вид битрейта : Постоянный
Битрейт : 224 Кбит/сек
Каналы : 2 канала
Расположение каналов : Front: L R
Частота : 48,0 КГц
Частота кадров : 31,250 кадров/сек (1536 spf)
Битовая глубина : 16 бит
Метод сжатия : С потерями
Размер потока : 177 Мбайт (11%)
Выравнивание : Разделение по промежуткам
Продолжительность промежутка : 42 мс. (1,00 видеокадр)
Время предзагрузки промежутка : 500 мс.
ServiceKind/String : Complete Main

Аудио #2
Идентификатор : 2
Формат : AC-3
Формат/Информация : Audio Coding 3
Параметр Endianness формата : Big
Идентификатор кодека : 2000
Продолжительность : 1 ч. 50 м.
Вид битрейта : Постоянный
Битрейт : 448 Кбит/сек
Каналы : 6 каналов
Расположение каналов : Front: L C R, Side: L R, LFE
Частота : 48,0 КГц
Частота кадров : 31,250 кадров/сек (1536 spf)
Битовая глубина : 16 бит
Метод сжатия : С потерями
Размер потока : 354 Мбайт (21%)
Выравнивание : Разделение по промежуткам
Продолжительность промежутка : 42 мс. (1,00 видеокадр)
Время предзагрузки промежутка : 500 мс.
ServiceKind/String : Complete Main


Внимание! AdBlock блокирует показ скриншотов, все вопросы к разработчикам )))

Трекер:  [ 23-Май-2017 06:00 ]

  

Скачать .torrent

Размер .torrent файла 16 KB


Размер: 1.61 GB
Хэш (hash) релиза: 1881262fa810542eb7b7d027c6b53b4208d86945
Подписка на обновления:

Еще никто не оставлял запись к записи скачать торрент Маяк китов El faro de las orcas . Будь первым!

!Обратная связь