Скачать через торрент Кровный отец Blood Father Фильм бесплатно в хорошем качестве torrent

Скачивайте на UnionPeer.org фильмы через торрент без регистрации. Новинки кино в хорошем качестве через торрент. На UnionPeer.org можно скачать через торрент фильмы 2014 и 2015 годов. Самые новые фильмы.

Скачать торрент Кровный отец Blood Father бесплатно через .torrent фильм мультфильм сериал

Статистика раздачи
Размер:  1.46 GB   |    Зарегистрирован:  6 лет 9 месяцев   |    .torrent скачан:  192 раза   |   
Раздают:  1  
 

Скачать Кровный отец / Blood Father (Жан-Франсуа Рише / Jean - François Richet) [2016, Франция, боевик, триллер, BDRip] AVO (Гаврилов) через torrent

 
 
Автор Сообщение

Galfimbul

avatar Galfimbul


Кровный отец / Blood Father

Страна: Франция
Жанр: Боевик, триллер
Год выпуска: 2016
Продолжительность: 01:28:13

Перевод: Авторский (одноголосый закадровый) Андрей Гаврилов
Cубтитры: нет
Оригинальная аудиодорожка: нет

Режиссер: Жан-Франсуа Рише / Jean - François Richet

В ролях: Мэл Гибсон, Эрин Мориарти, Диего Луна, Майкл Паркс, Уильям Х. Мэйси, Мигель Сандовал, Дейл Дикки, Ричард Кебрал, Дэниэл Монкада, Райан Дорси

Описание: 17-летняя девушка попадает в серьёзные неприятности, и теперь за ней охотятся убийцы наркокартеля. Из близких у неё только отец - завязавший алкоголик и бывший заключённый, который даже особо не видел свою дочь и не принимал участия в её воспитании. Но родственников не выбирают, и девушке приходится обратиться к нему за помощью.

Доп. информация:
Релиз от
Рип от ukollov - исходник BDRemux / 1080p / HDClub
Перевод состоялся благодаря пользователям форума dunhill200: Gross1978, Energonn, MyxAmoP, Django, xerman13, mvch, karantin66, KerkP, Tagansky, patamuf, Chistobaev, gumbit, mazeu, kolibri2, ZeRoNe, Pain, dwser, Volshebnik, Vimann, fly32, vovyanskiy, nimph, luka69, gtjuve, foxlight, Denis1980, Cyberclean, Gangster, ROLLYTYLER, saenwert

Сэмпл: http://multi-up.com/1155271

Качество видео: BDRip
Формат видео: AVI

Видео: XviD; 720x304 (2,35:1); 1910 Kbps; 23,976 fps; 0,364 bit/pixel
Аудио: AC3; 48 kHz, 448 Kbps; CBR; 6 ch
Общее
Полное имя : Blood.Father.2016.BDRip.Gavrilov.lumpeN.avi
Формат : AVI
Формат/Информация : Audio Video Interleave
Размер файла : 1,46 Гбайт
Продолжительность : 1 ч. 28 м.
Общий поток : 2367 Кбит/сек
Название фильма : lumpeN
Программа кодирования : VirtualDubMod 1.5.10.2 (build 2540/release)
Библиотека кодирования : VirtualDubMod build 2540/release

Видео
Идентификатор : 0
Формат : MPEG-4 Visual
Профиль формата : Advanced Simple@L5
Параметр BVOP формата : 1
Параметр QPel формата : Нет
Параметр GMC формата : Без точки перехода
Параметр матрицы формата : Выборочная
Идентификатор кодека : XVID
Идентификатор кодека/Подсказка : XviD
Продолжительность : 1 ч. 28 м.
Битрейт : 1910 Кбит/сек
Ширина : 720 пикселей
Высота : 304 пикселя
Соотношение сторон : 2,35:1
Частота кадров : 23,976 (24000/1001) кадра/сек
Цветовое пространство : YUV
Субдискретизация насыщенности : 4:2:0
Битовая глубина : 8 бит
Тип развёртки : Прогрессивная
Метод сжатия : С потерями
Бит/(Пиксели*Кадры) : 0.364
Размер потока : 1,18 Гбайт (81%)
Библиотека кодирования : XviD 73

Аудио
Идентификатор : 1
Формат : AC-3
Формат/Информация : Audio Coding 3
Параметр Endianness формата : Big
Идентификатор кодека : 2000
Продолжительность : 1 ч. 28 м.
Вид битрейта : Постоянный
Битрейт : 448 Кбит/сек
Каналы : 6 каналов
Расположение каналов : Front: L C R, Side: L R, LFE
Частота : 48,0 КГц
Частота кадров : 31,250 кадров/сек (1536 spf)
Битовая глубина : 16 бит
Метод сжатия : С потерями
Размер потока : 283 Мбайт (19%)
Выравнивание : Разделение по промежуткам
Продолжительность промежутка : 42 мс. (1,00 видеокадр)
Время предзагрузки промежутка : 500 мс.
Заголовок : Gavrilov
ServiceKind/String : Complete Main


Внимание! AdBlock блокирует показ скриншотов, все вопросы к разработчикам )))
Трекер:  [ 25-Май-2017 07:30 ]

  

Скачать .torrent

Размер .torrent файла 15 KB


Размер: 1.46 GB
Хэш (hash) релиза: c42229291314e9bf489d6264bd58a3d013448d87
Подписка на обновления:

Торренты, похожие на Кровный отец Blood Father скачать торрент

Форум Название Автор Размер S L Добавлен
Зарубежные фильмы 2016-2019 (Новинки зарубежного кино) ·%· Кровный отец / Blood Father (2016) BDRip от MegaPeer | A Galfimbul 15649929981.46 GB 0 0 1587832209

19:30

25-Апр-20

Зарубежные фильмы 2016-2019 (Новинки зарубежного кино) ·%· Кровный отец / Blood Father (2016) BDRip-AVC от OlLanDGroup | HDRezka Studio Galfimbul 16921675421.58 GB 0 0 1530716407

18:00

4-Июл-18

Зарубежные фильмы 2016-2019 (Новинки зарубежного кино) ·· Кровный отец / Blood Father (Жан - Франсуа Рише / Jean - François Richet) [2016, Франция, боевик, триллер, криминал, WEB-DLRip] AVO (Андрей Гаврилов) Galfimbul 782313472746 MB 0 0 1496596342

20:12

4-Июн-17

Зарубежные фильмы до 2016 ·· Кровный отец / Blood Father (Жан-Франсуа Рише / Jean-François Richet) [2016, Франция, боевик, триллер, криминал, BDRemux 1080p] MVO + VO + Sub Eng + Original Eng Galfimbul 2187750980420.38 GB 0 0 1477512511

23:08

26-Окт-16

Зарубежные фильмы 2016-2019 (Новинки зарубежного кино) ·· Кровный отец / Blood Father (Жан - Франсуа Рише / Jean - François Richet) [2016, Франция, Боевик, триллер, криминал, WEB-DLRip] MVO (Студия "Paradox" & Omskbird records) Galfimbul 782313472746 MB 0 0 1476165565

08:59

11-Окт-16

Зарубежные фильмы 2016-2019 (Новинки зарубежного кино) ·· Кровный отец / Blood Father (Жан - Франсуа Рише / Jean - François Richet) [2016, Франция, Боевик, триллер, криминал, BDRip] MVO ("Paradox" & Omskbird records) Galfimbul 15639019521.46 GB 0 0 1476165496

08:58

11-Окт-16

Зарубежные фильмы 2016-2019 (Новинки зарубежного кино) ·· Кровный отец / Blood Father (Жан-Франсуа Рише / Jean - François Richet) [2016, Франция, боевик, триллер, криминал, BDRip-AVC] MVO ("Paradox" & Omskbird records) Galfimbul 15956681991.49 GB 0 0 1476165468

08:57

11-Окт-16

Зарубежные фильмы до 2016 ·· Кровный отец / Blood Father (Жан-Франсуа Рише / Jean-François Richet) [2016, Франция, триллер, криминал, боевик, BDRip 1080p] MVO (Paradox & Omskbird records) + Sub Eng + Original Eng Galfimbul 107291024619.99 GB 0 0 1475614349

23:52

4-Окт-16

Зарубежные фильмы 2016-2019 (Новинки зарубежного кино) ·· Кровный отец / Blood Father (Жан-Франсуа Рише) [2016, боевик, триллер, WEB-DL 720p] Galfimbul 28811240562.68 GB 0 0 1472404492

20:14

28-Авг-16

Зарубежные фильмы 2016-2019 (Новинки зарубежного кино) ·· Кровный отец / Blood Father (Жан-Франсуа Рише) [2016, боевик, триллер, WEB-DLRip] Galfimbul 14679552001.37 GB 0 0 1472336017

01:13

28-Авг-16

Зарубежные фильмы 2016-2019 (Новинки зарубежного кино) ·· Кровный отец / Blood Father (Жан-Франсуа Рише) [2016, боевик, триллер, WEB-DLRip 1080p] Galfimbul 30442336532.84 GB 0 0 1472336013

01:13

28-Авг-16

Еще никто не оставлял запись к записи скачать торрент Кровный отец Blood Father . Будь первым!

!Обратная связь