Скачать через торрент Основатель The Founder Фильм бесплатно в хорошем качестве torrent

Скачивайте на UnionPeer.org фильмы через торрент без регистрации. Новинки кино в хорошем качестве через торрент. На UnionPeer.org можно скачать через торрент фильмы 2014 и 2015 годов. Самые новые фильмы.

Скачать торрент Основатель The Founder бесплатно через .torrent фильм мультфильм сериал

Статистика раздачи
Размер:  1.46 GB   |    Зарегистрирован:  6 лет 6 месяцев   |    .torrent скачан:  136 раз   |   
Раздают:  1  
 

Скачать Основатель / The Founder (Джон Ли Хэнкок / John Lee Hancock) [2016, США, драма, биография, история, HDRip] MVO (Jaskier) через torrent

 
 
Автор Сообщение

Galfimbul

avatar Galfimbul


Основатель / The Founder

Страна: США
Жанр: драма, биография, история
Год выпуска: 2016
Продолжительность: 01:55:20

Перевод: Профессиональный (многоголосый закадровый) - Jaskier
Субтитры: нет
Оригинальная аудиодорожка: нетРежиссер: Джон Ли Хэнкок / John Lee HancockВ ролях: Майкл Китон, Ник Офферман, Джон Кэрролл Линч, Линда Карделлини, Б.Дж. Новак, Лора Дерн, Джастин Брук, Кэти Нилэнд, Патрик Уилсон, Грифф Ферст, Вилбур Фицджералд, Дэвид де ФризОписание: Фильм расскажет о жизни Рэя Крока, человека создавшего самую известную в мире сеть ресторанов быстрого обслуживания — McDonald`s.Качество видео: HDRip
Формат видео: AVI

Видео: 720x304 (2.37:1), 23.976 fps, XviD build 73 ~1417 kbps avg, 0.27 bit/pixel
Аудио: 48 kHz, AC3 Dolby Digital, 3/2 (L,C,R,l,r) + LFE ch, ~384 kbpsСкачать сэмпл
Format                      : AVI
Format/Info                 : Audio Video Interleave
File size                   : 1.46 GiB
Duration                    : 1 h 55 min
Overall bit rate            : 1 811 kb/s
Writing application         : VirtualDubMod 1.5.10.3 | www.virtualdub-fr.org || (build 2550/release)
Writing library             : VirtualDubMod build 2550/release

Video
ID                          : 0
Format                      : MPEG-4 Visual
Format profile              : Advanced Simple@L5
Format settings, BVOP       : 1
Format settings, QPel       : No
Format settings, GMC        : No warppoints
Format settings, Matrix     : Custom
Codec ID                    : DX50
Codec ID/Hint               : DivX 5
Duration                    : 1 h 55 min
Bit rate                    : 1 417 kb/s
Width                       : 720 pixels
Height                      : 304 pixels
Display aspect ratio        : 2.35:1
Frame rate                  : 23.976 (24000/1001) FPS
Color space                 : YUV
Chroma subsampling          : 4:2:0
Bit depth                   : 8 bits
Scan type                   : Progressive
Compression mode            : Lossy
Bits/(Pixel*Frame)          : 0.270
Stream size                 : 1.14 GiB (78%)
Writing library             : XviD 73

Audio
ID                          : 1
Format                      : AC-3
Format/Info                 : Audio Coding 3
Format settings, Endianness : Big
Codec ID                    : 2000
Duration                    : 1 h 55 min
Bit rate mode               : Constant
Bit rate                    : 384 kb/s
Channel(s)                  : 6 channels
Channel positions           : Front: L C R, Side: L R, LFE
Sampling rate               : 48.0 kHz
Frame rate                  : 31.250 FPS (1536 spf)
Bit depth                   : 16 bits
Compression mode            : Lossy
Stream size                 : 317 MiB (21%)
Alignment                   : Split accross interleaves
Interleave, duration        : 42  ms (1.00 video frame)
Interleave, preload duratio : 500  ms
Service kind                : Complete Main


Внимание! AdBlock блокирует показ скриншотов, все вопросы к разработчикам )))
Трекер:  [ 04-Июн-2017 18:30 ]

  

Скачать .torrent

Размер .torrent файла 15 KB


Размер: 1.46 GB
Хэш (hash) релиза: e2e690b6113433e7b5f7e76c99134ee49b7b37
Подписка на обновления:

Торренты, похожие на Основатель The Founder скачать торрент

Форум Название Автор Размер S L Добавлен
Зарубежные фильмы 2016-2019 (Новинки зарубежного кино) ·· Основатель / The Founder (Джон Ли Хэнкок) [2016, Драма, биография, история, BDRip 720p] Galfimbul 66568367316.2 GB 2 0 1494454408

01:13

11-Май-17

Зарубежные фильмы 2016-2019 (Новинки зарубежного кино) ·· Основатель / The Founder (Джон Ли Хэнкок) [2016, Драма, биография, история, BDRip 1080p] Galfimbul 96496363748.99 GB 0 0 1494042100

06:41

6-Май-17

Зарубежные фильмы 2016-2019 (Новинки зарубежного кино) ·· Основатель / The Founder (Джон Ли Хэнкок) [2016, Драма, биография, история, WEB-DL 1080p] Galfimbul 46086928744.29 GB 0 0 1491380147

11:15

5-Апр-17

Зарубежные фильмы 2016-2019 (Новинки зарубежного кино) ·· Основатель / The Founder (Джон Ли Хэнкок) [2016, Драма, биография, история, WEB-DL 720p] Galfimbul 38795428913.61 GB 0 0 1491365615

07:13

5-Апр-17

Зарубежные фильмы 2016-2019 (Новинки зарубежного кино) ·· Основатель / The Founder (Джон Ли Хэнкок) [2016, Драма, биография, история, WEB-DLRip] Galfimbul 22017576962.05 GB 0 0 1491360009

05:40

5-Апр-17

Зарубежные фильмы 2016-2019 (Новинки зарубежного кино) ·· Основатель / The Founder (Джон Ли Хэнкок) [2016, Драма, биография, история, DVDScr] Galfimbul 15647109121.46 GB 0 0 1486938111

01:21

13-Фев-17

Еще никто не оставлял запись к записи скачать торрент Основатель The Founder . Будь первым!

!Обратная связь