Скачать через торрент Берлинский синдром Berlin Syndrome Фильм бесплатно в хорошем качестве torrent

Скачивайте на UnionPeer.org фильмы через торрент без регистрации. Новинки кино в хорошем качестве через торрент. На UnionPeer.org можно скачать через торрент фильмы 2014 и 2015 годов. Самые новые фильмы.

Скачать торрент Берлинский синдром Berlin Syndrome бесплатно через .torrent фильм мультфильм сериал

Статистика раздачи
Размер:  1.51 GB   |    Зарегистрирован:  6 лет 8 месяцев   |    .torrent скачан:  147 раз   |   
Раздают:  1  
 

Скачать Берлинский синдром / Berlin Syndrome (Кейт Шортланд / Cate Shortland) [2017, Австралия, Германия, Триллер, WEB-DLRip] VO (BadBajo) через torrent

 
 
Автор Сообщение

Galfimbul

avatar Galfimbul


Берлинский синдром / Berlin Syndrome
Страна: Австралия, Германия
Жанр: Триллер
Год выпуска: 2017
Продолжительность: 01:55:57Перевод: Одноголосый закадровый - BadBajo
Субтитры: нетРежиссер: Кейт Шортланд / Cate ShortlandВ ролях: Тереза Палмер, Макс Римельт, Люси Арон, Сем Тункай, Маттиас Хабих, Эмма Бадинг, Майя Абсберг, Морган Ферру, Кристина Костив, Чарли ТорнОписание: Когда во время отпуска в Берлине австралийская фотожурналистка Клэр встречает Энди, харизматичного местного парня, между ними мгновенно возникает взаимное притяжение. После совместной прогулки по улицам Берлина наступает ночь страсти, но то, что на первый взгляд кажется началом бурного романа, неожиданно принимает зловещий оборот. Клэр просыпается на следующее утро и понимает, что Энди ушел на работу, оставив ее запертой в своей квартире. Казалось бы, нелепая ошибка. За исключением того, что он не собирается ее отпускать. Когда-либо. / / Качество видео: WEB-DLRip
Формат видео: AVI

Видео: 720х304 (2.35:1), 24.000 fps, XviD build 73, 1476 Kbps, 0.28 bits/pixel
Аудио: 48 kHz, AC3 Dolby Digital, 5.1 ch, 384 KbpsРелиз от:
General
Complete name : Downloads\Berlin.Syndrome.2017.AVO.BadBajo.WEB-DLRip.ExKinoRay.avi
Format : AVI
Format/Info : Audio Video Interleave
File size : 1.51 GiB
Duration : 1h 55mn
Overall bit rate : 1 869 Kbps
Writing application : VirtualDubMod 1.5.10.3 | www.virtualdub-fr.org || (build 2550/release)
Writing library : VirtualDubMod build 2550/release
Video #0
ID : 0
Format : MPEG-4 Visual
Format profile : Advanced Simple@L5
Format settings, BVOP : 1
Format settings, QPel : No
Format settings, GMC : No warppoints
Format settings, Matrix : Custom
Codec ID : XVID
Codec ID/Hint : XviD
Duration : 1h 55mn
Bit rate : 1 476 Kbps
Width : 720 pixels
Height : 304 pixels
Display aspect ratio : 2.35:1
Frame rate : 24.000 fps
Color space : YUV
Chroma subsampling : 4:2:0
Bit depth : 8 bits
Scan type : Progressive
Compression mode : Lossy
Bits/(Pixel*Frame) : 0.281
Stream size : 1.20 GiB (79%)
Writing library : XviD 73
Audio #1
ID : 1
Format : AC-3
Format/Info : Audio Coding 3
Mode extension : CM (complete main)
Format settings, Endianness : Big
Codec ID : 2000
Duration : 1h 55mn
Bit rate mode : Constant
Bit rate : 384 Kbps
Channel(s) : 6 channels
Channel positions : Front: L C R, Side: L R, LFE
Sampling rate : 48.0 KHz
Bit depth : 16 bits
Compression mode : Lossy
Stream size : 318 MiB (21%)
Alignment : Split accross interleaves
Interleave, duration : 42 ms (1.00 video frame)
Interleave, preload duration : 500 ms


Внимание! AdBlock блокирует показ скриншотов, все вопросы к разработчикам )))
Трекер:  [ 04-Июн-2017 18:30 ]

  

Скачать .torrent

Размер .torrent файла 15 KB


Размер: 1.51 GB
Хэш (hash) релиза: 862645b54f52038655f246ca36aefccbfaf6572a
Подписка на обновления:

Торренты, похожие на Берлинский синдром Berlin Syndrome скачать торрент

Форум Название Автор Размер S L Добавлен
Зарубежные фильмы 2016-2019 (Новинки зарубежного кино) ·%· Берлинский синдром / Berlin Syndrome (2017) BDRip от MegaPeer | UK Transfer | Лицензия Galfimbul 15681901091.46 GB 0 0 1589543407

14:50

15-Май-20

Зарубежные фильмы до 2016 ·· Берлинский синдром / Berlin Syndrome (Кейт Шортланд / Cate Shortland) [2016, Австралия, Германия, триллер, драма, детектив, BDRip 720p] [GER Transfer] Dub + VO (BadBajo) + Sub (Rus, Eng) + Original (Eng) Galfimbul 53779319275.01 GB 0 0 1524947426

23:30

28-Апр-18

Зарубежные фильмы 2016-2019 (Новинки зарубежного кино) ·· Берлинский синдром / Berlin Syndrome (Кейт Шортланд / Cate Shortland) [2017, Австралия, Германия, триллер, драма, детектив, BDRip] Dub + Original Eng + Sub Rus, Eng Galfimbul 23402891652.18 GB 0 0 1510675285

19:01

14-Ноя-17

Зарубежные фильмы 2016-2019 (Новинки зарубежного кино) ·· Берлинский синдром / Berlin Syndrome (Кейт Шортланд / Cate Shortland) [2017, Австралия, Германия, триллер, драма, детектив, WEB-DLRip-AVC] Dub Galfimbul 15597778261.45 GB 0 0 1503514894

22:01

23-Авг-17

Зарубежные фильмы 2016-2019 (Новинки зарубежного кино) ·· Берлинский синдром / Berlin Syndrome (Кейт Шортланд / Cate Shortland) [2017, Австралия, Германия, триллер, драма, детектив, WEB-DLRip] Dub Galfimbul 15658496001.46 GB 0 0 1503514873

22:01

23-Авг-17

Зарубежные фильмы 2016-2019 (Новинки зарубежного кино) ·· Берлинский синдром / Berlin Syndrome (Кейт Шортланд / Cate Shortland) [2017, Австралия, Германия, Триллер, WEB-DL 1080p] iTunes Galfimbul 46295265354.31 GB 0 0 1503261046

23:30

20-Авг-17

Зарубежные фильмы 2016-2019 (Новинки зарубежного кино) ·· Берлинский синдром / Berlin Syndrome (Кейт Шортланд / Cate Shortland) [2017, Австралия, Германия, Триллер, WEB-DL 720p] iTunes Galfimbul 41357288523.85 GB 0 0 1503261037

23:30

20-Авг-17

Зарубежные фильмы 2016-2019 (Новинки зарубежного кино) ·· Берлинский синдром / Berlin Syndrome (Кейт Шортланд / Cate Shortland) [2017, Австралия, Германия, Триллер, WEB-DL 1080p] Galfimbul 46296116374.31 GB 0 0 1501224612

09:50

28-Июл-17

Еще никто не оставлял запись к записи скачать торрент Берлинский синдром Berlin Syndrome . Будь первым!

!Обратная связь