Скачать через торрент Гений Genius Фильм бесплатно в хорошем качестве torrent

Скачивайте на UnionPeer.org фильмы через торрент без регистрации. Новинки кино в хорошем качестве через торрент. На UnionPeer.org можно скачать через торрент фильмы 2014 и 2015 годов. Самые новые фильмы.

Скачать торрент Гений Genius бесплатно через .torrent фильм мультфильм сериал

Статистика раздачи
Размер:  4.25 GB   |    Зарегистрирован:  6 лет 8 месяцев   |    .torrent скачан:  20 раз   |   
Раздают:  1  
 

Скачать Гений / Genius / Сезон: 1 / Серии: 1-7 из 10 (Джеймс Хоуз, Минки Спиро, Рон Ховард) [2017, США, Драма, биография, история., HDTVRip] MVO (Jaskier) + Original через torrent

 
 
Автор Сообщение

Galfimbul

avatar Galfimbul


Гений| Genius
Год выпуска: 2017
Страна: США
Жанр: Драма, биография, история
Продолжительность: ~ 00:59:00Перевод: Профессиональный (многоголосый закадровый) | JaskierРежиссёр: Джеймс Хоуз, Минки Спиро, Рон ХовардВ ролях: Джеффри Раш, Джонни Флинн, Николас Роу, Саманта Колли, Джон Флетчер, Алисия фон Риттберг, Сильвия Бухбайер, Т.Р. Найт, Люси Расселл и др.Описание: Сериал о том, как Эйнштейн в молодости не мог получить работу преподавателя, и как он пришёл к теории относительности. | |Качество: HDTVRip
Формат: AVI
Видео: XviD, ~ 1400 kbps, 704x352 (2,000), 25 fps
Аудио 1: MP3, 48,0 КГц, 2 ch, 128 kbps - Rus
Аудио 2: MP3, 48,0 КГц, 2 ch, 128 kbps - Eng
Субтитры: отсутствуютРеклама: Присутствует звуковая (два раза в начале и конце по 12 сек.)
Переведено и озвучено: студией Jaskier
Общее
Полное имя                               : H:\Ясы-сериалы\Genius. Season 1 (HDTVRip l 400p l Jaskier)\Genius.s01e01.HDTVRip.Rus.Eng.Jaskier.avi
Формат                                   : AVI
Формат/Информация                        : Audio Video Interleave
Размер файла                             : 751 Мбайт
Продолжительность                        : 1 ч. 1 м.
Общий поток                              : 1695 Кбит/сек
Программа кодирования                    : VirtualDubMod 1.5.10.3 | www.virtualdub-fr.org || (build 2550/release)
Библиотека кодирования                   : VirtualDubMod build 2550/release

Видео
Идентификатор                            : 0
Формат                                   : MPEG-4 Visual
Профиль формата                          : Advanced Simple@L5
Параметр BVOP формата                    : 1
Параметр QPel формата                    : Нет
Параметр GMC формата                     : Без точки перехода
Параметр матрицы формата                 : Default (MPEG)
Идентификатор кодека                     : XVID
Идентификатор кодека/Подсказка           : XviD
Продолжительность                        : 1 ч. 1 м.
Битрейт                                  : 1425 Кбит/сек
Ширина                                   : 704 пикселя
Высота                                   : 352 пикселя
Соотношение сторон                       : 2,000
Частота кадров                           : 25,000 кадров/сек
Цветовое пространство                    : YUV
Субдискретизация насыщенности            : 4:2:0
Битовая глубина                          : 8 бит
Тип развёртки                            : Прогрессивная
Метод сжатия                             : С потерями
Бит/(Пиксели*Кадры)                      : 0.230
Размер потока                            : 631 Мбайт (84%)
Библиотека кодирования                   : XviD 73

Аудио #1
Идентификатор                            : 1
Формат                                   : MPEG Audio
Версия формата                           : Version 1
Профиль формата                          : Layer 3
Режим                                    : Joint stereo
Расширение режима                        : MS Stereo
Идентификатор кодека                     : 55
Идентификатор кодека/Подсказка           : MP3
Продолжительность                        : 1 ч. 1 м.
Вид битрейта                             : Постоянный
Битрейт                                  : 128 Кбит/сек
Каналы                                   : 2 канала
Частота                                  : 48,0 КГц
Метод сжатия                             : С потерями
Размер потока                            : 56,7 Мбайт (8%)
Выравнивание                             : Соединение по промежуткам
Продолжительность промежутка             : 40  мс. (1,00 видеокадр)
Время предзагрузки промежутка            : 504  мс.

Аудио #2
Идентификатор                            : 2
Формат                                   : MPEG Audio
Версия формата                           : Version 1
Профиль формата                          : Layer 3
Режим                                    : Joint stereo
Расширение режима                        : MS Stereo
Идентификатор кодека                     : 55
Идентификатор кодека/Подсказка           : MP3
Продолжительность                        : 1 ч. 1 м.
Вид битрейта                             : Постоянный
Битрейт                                  : 128 Кбит/сек
Каналы                                   : 2 канала
Частота                                  : 48,0 КГц
Метод сжатия                             : С потерями
Размер потока                            : 56,7 Мбайт (8%)
Выравнивание                             : Соединение по промежуткам
Продолжительность промежутка             : 40  мс. (1,00 видеокадр)
Время предзагрузки промежутка            : 504  мс.
Когда раздача ведётся путём добавления новых серий, при каждом добавлении создётся новый торрент. Чтобы начать докачку новой серии, пользователям необходимо сделать следующее:
(1) остановить скачивание,
(2) удалить старый торрент у себя из клиента (старые серии удалять не надо),
(3) скачать новый торрент и запустить его у себя в клиенте вместо старого, при этом указать клиенту путь в старую папку, куда и должно происходить скачивание новых серий.
Ваш клиент при этом должен произвести хеширование (проверку) старой папки (если не производит сам - помогите ему сделать это), и будет докачивать только те серии, которых у вас ещё нет. Старые серии при этом не удаляются, а продолжают раздаваться!
Eсли вы уже удалили старые серии, то предотвратить повторную закачку старых серий можно, отжав галочку в соответсвующих местах при запуске нового торрента. По возможности, желательно не удалять старые серии как можно дольше, чтобы релизёр не столько продолжал раздавать старые серии, а смог сконцентрироваться на новых.
| Эта раздача включена в подборку Художественные биографические фильмы |

Внимание! AdBlock блокирует показ скриншотов, все вопросы к разработчикам )))
Трекер:  [ 09-Июн-2017 20:18 ]

  

Скачать .torrent

Размер .torrent файла 22 KB


Размер: 4.25 GB
Хэш (hash) релиза: 434bb2469a446283aec84826949a02beb4d14e84
Подписка на обновления:

Еще никто не оставлял запись к записи скачать торрент Гений Genius . Будь первым!

!Обратная связь