Скачать через торрент Пэчворк или пёстрая мозаика Patchwork Фильм бесплатно в хорошем качестве torrent

Скачивайте на UnionPeer.org фильмы через торрент без регистрации. Новинки кино в хорошем качестве через торрент. На UnionPeer.org можно скачать через торрент фильмы 2014 и 2015 годов. Самые новые фильмы.

Скачать торрент Пэчворк или пёстрая мозаика Patchwork бесплатно через .torrent фильм мультфильм сериал

Статистика раздачи
Размер:  3.24 GB   |    Зарегистрирован:  6 лет 8 месяцев   |    .torrent скачан:  150 раз   |   
Раздают:  1  
 

Скачать Пэчворк или пёстрая мозаика / Patchwork (Тайлер МакИнтайр) [2015, Ужасы, комедия, WEB-DL 1080p] через torrent

 
 
Автор Сообщение

Galfimbul

avatar Galfimbul


Производство: США, Канада, Infinite Lives Entertainment
Жанр: Ужасы, комедия

Режиссер: Тайлер МакИнтайр
Актеры: Тори Столпер, Трэйси Фэирэуэй, Мария Бласуччи, Джеймс Фелпс, Крэйг Анстетт, Сет Кэссел, Браден Дэвис, Энтони ДиМиери, Эрик Эдельштейн, Камила Гринберг

Описание:Три незнакомые молодые женщины приходят на ночную вечеринку и потеряв сознание, оказываются в одном теле. Теперь они должны отложить свои разногласия, чтобы найти, кто это сделал, и отомстить!


Дополнительно: Пэчворк- лоскутная мозаика, вид рукоделия, в котором по принципу мозаики сшивается цельное изделие из кусочков ткани.

Продолжительность: 01:27:14
Качество видео: WEB-DL
Перевод: Любительский, одноголосый [Хихикающий доктор]
Субтитры: Английские
Реклама: перед фильмом голосовая реклама.
Видео: AVC/H.264, 1908х1068, ~4450 Kbps
Аудио 1: Русский (АС3, 6 ch, 384 Кбит/с)
Аудио 2: Английский (AC3, 6 ch, 384 Кбит/с)

Семпл
Общее
Уникальный идентификатор : 183986440188320692135266466121309066714 (0x8A6A7FDC15EA193DB6BB5A77378995DA)
Полное имя : E:MMMMPatchwork.2015.1080p.WEB-DL.H264.mkv
Формат : Matroska
Версия формата : Version 4 / Version 2
Размер файла : 3,24 Гбайт
Продолжительность : 1 ч. 27 м.
Общий поток : 5324 Кбит/сек
Название фильма : Patchwork.2015
Дата кодирования : UTC 2017-06-10 15:28:05
Программа кодирования : mkvmerge v6.9.1 ('Blue Panther') 64bit built on Apr 18 2014 18:23:38
Библиотека кодирования : libebml v1.3.0 + libmatroska v1.4.1
Обложка : Yes
Attachments : small_cover.jpg / small_cover_land.jpg / cover.jpg / cover_land.jpg

Видео
Идентификатор : 1
Формат : AVC
Формат/Информация : Advanced Video Codec
Профиль формата : High@L4
Параметр CABAC формата : Да
Параметр ReFrames формата : 5 кадров
Идентификатор кодека : V_MPEG4/ISO/AVC
Продолжительность : 1 ч. 27 м.
Битрейт : 4450 Кбит/сек
Ширина : 1920 пикселей
Высота : 816 пикселей
Соотношение сторон : 2,35:1
Режим частоты кадров : Постоянный
Частота кадров : 23,976 (24000/1001) кадра/сек
Цветовое пространство : YUV
Субдискретизация насыщенности : 4:2:0
Битовая глубина : 8 бит
Тип развёртки : Прогрессивная
Бит/(Пиксели*Кадры) : 0.118
Размер потока : 2,71 Гбайт (84%)
Язык : English
Default : Да
Forced : Нет
Цветовой диапазон : Limited
Основные цвета : BT.709
Характеристики трансфера : BT.709
Коэффициенты матрицы : BT.709

Аудио #1
Идентификатор : 2
Формат : AC-3
Формат/Информация : Audio Coding 3
Расширение режима : CM (complete main)
Параметр Endianness формата : Big
Идентификатор кодека : A_AC3
Продолжительность : 1 ч. 27 м.
Вид битрейта : Постоянный
Битрейт : 384 Кбит/сек
Каналы : 6 каналов
Расположение каналов : Front: L C R, Side: L R, LFE
Частота : 48,0 КГц
Частота кадров : 31,250 кадров/сек (1536 spf)
Метод сжатия : С потерями
Задержка видео : -42 мс.
Размер потока : 240 Мбайт (7%)
Заголовок : Xixidoktor
Язык : Russian
Default : Да
Forced : Нет

Аудио #2
Идентификатор : 3
Формат : AC-3
Формат/Информация : Audio Coding 3
Расширение режима : CM (complete main)
Параметр Endianness формата : Big
Идентификатор кодека : A_AC3
Продолжительность : 1 ч. 27 м.
Вид битрейта : Постоянный
Битрейт : 384 Кбит/сек
Каналы : 6 каналов
Расположение каналов : Front: L C R, Side: L R, LFE
Частота : 48,0 КГц
Частота кадров : 31,250 кадров/сек (1536 spf)
Метод сжатия : С потерями
Задержка видео : -42 мс.
Размер потока : 240 Мбайт (7%)
Заголовок : original
Язык : English
Default : Нет
Forced : Нет

Текст
Идентификатор : 4
Формат : UTF-8
Идентификатор кодека : S_TEXT/UTF8
Идентификатор кодека/Информация : UTF-8 Plain Text
Язык : English
Default : Нет
Forced : Нет

Меню
00:00:00.000 : en:Prologue
00:03:54.000 : en:Part I: Jennifer
00:08:06.000 : en:Ready When You Are
00:09:45.000 : en:Part II: AWOL
00:12:59.000 : en:Owl Cat?
00:16:06.000 : en:Run!
00:19:18.000 : en:We Need a Plan
00:23:22.000 : en:Dress Up
00:26:43.000 : en:Part III: Ellie
00:31:13.000 : en:My Favorite Color Is Sparkly
00:33:59.000 : en:Part IV: Makeover
00:37:39.000 : en:Jennifer's Revenge
00:41:44.000 : en:Part V: Madeleine
00:44:08.000 : en:This All Sounds Great
00:45:55.000 : en:Part VI: Rampage
00:47:24.000 : en:Ellie's Revenge
00:51:33.000 : en:Madeleine's Revenge
00:54:10.000 : en:One Night Stand
00:58:59.000 : en:Breaking News
01:02:15.000 : en:Part VII: Madeleine II
01:05:13.000 : en:Take Your Pick
01:08:20.000 : en:Part VIII: Miscreations
01:10:59.000 : en:Alterations
01:14:18.000 : en:Help Is on the Way
01:16:58.000 : en:Ground Rent
01:20:20.000 : en:Release the Owl Cat!
01:23:40.000 : en:Epilogue
01:24:40.000 : en:Credits


Внимание! AdBlock блокирует показ скриншотов, все вопросы к разработчикам )))
Трекер:  [ 10-Июн-2017 19:20 ]

  

Скачать .torrent

Размер .torrent файла 16 KB


Размер: 3.24 GB
Хэш (hash) релиза: 7b44ccee6839d3ee921f7c37783d1b11a7956097
Подписка на обновления:

Еще никто не оставлял запись к записи скачать торрент Пэчворк или пёстрая мозаика Patchwork . Будь первым!

!Обратная связь