Beauty and the Beast torrent

UnionPeer.org . . UnionPeer.org 2014 2015 . .

Beauty and the Beast .torrent

8.15 GB   |    :  6 5    |    .torrent :  264    |   
1  
   
 

Galfimbul

avatar Galfimbul


/ Beauty and the Beast

: 2017
:
: , , ,
: 02:09:16
: [iTunes]
: ,
:
: , , -
: , ,
: .
:
: , ,
:
: / Emma Watson (Belle, $ 15 000 000 ), / Dan Stevens (Beast), / Luke Evans (Gaston), / Josh Gad (LeFou), / Kevin Kline (Maurice), / Hattie Morahan (Agathe / Enchantress), / Haydn Gwynne (Clothilde), / Gerard Horan (Jean the Potter), / Ray Fearon (Père Robert), / Ewan McGregor (Lumière), / Ian McKellen (Cogsworth), / Emma Thompson (Mrs. Potts)



: , , . , , . , , , . . , . , . .


: BDRip 1080p
: MKV
: AVC
: AC3
: 1920x804 (2.40:1), 23.976 fps, AVC, 8 000 Kbps
: #1: AC3, 384 Kbps, 48.0 KHz, 6 ch [Rus]
#2: AC3, 640 Kbps, 48.0 KHz, 6 ch [Eng]

:

General
 Unique ID : 239394300491649624778951914887202661868 (0xB419AA4973124F96A81A98EA6106E5EC)
 Complete name : Beauty.and.the.Beast.2017.BDRip.1080.ExKinoRay.mkv
 Format : Matroska
 Format version : Version 4 / Version 2
 File size : 8.15 GiB
 Duration : 2h 9mn
 Overall bit rate : 9 026 Kbps
 Encoded date : UTC 2017-06-11 18:59:12
 Writing application : mkvmerge v12.0.0 ('Trust / Lust') 64bit
 Writing library : libebml v1.3.4 + libmatroska v1.4.5
 DURATION : 02:09:04.064000000
 NUMBER_OF_FRAMES : 242002
 NUMBER_OF_BYTES : 371715072
 _STATISTICS_WRITING_APP : mkvmerge v12.0.0 ('Trust / Lust') 64bit
 _STATISTICS_WRITING_DATE_UTC : 2017-06-11 18:59:12
 _STATISTICS_TAGS : BPS DURATION NUMBER_OF_FRAMES NUMBER_OF_BYTES

 Video
 ID : 1
 Format : AVC
 Format/Info : Advanced Video Codec
 Format profile : <a href="mailto:Hig[email protected]" class="postLink">[email protected]</a>
 Format settings, CABAC : Yes
 Format settings, ReFrames : 5 frames
 Codec ID : V_MPEG4/ISO/AVC
 Duration : 2h 9mn
 Bit rate : 8 000 Kbps
 Width : 1 920 pixels
 Height : 804 pixels
 Display aspect ratio : 2.40:1
 Frame rate mode : Constant
 Frame rate : 23.976 fps
 Color space : YUV
 Chroma subsampling : 4:2:0
 Bit depth : 8 bits
 Scan type : Progressive
 Bits/(Pixel*Frame) : 0.216
 Stream size : 7.06 GiB (87%)
 Writing library : x264 core 146 r2538 121396c
 Encoding settings : cabac=1 / ref=5 / deblock=1:-3:-3 / analyse=0x3:0x133 / me=umh / subme=11 / psy=1 / psy_rd=1.05:0.05 / mixed_ref=1 / me_range=64 / chroma_me=1 / trellis=2 / 8x8dct=1 / cqm=0 / deadzone=21,11 / fast_pskip=0 / chroma_qp_offset=-3 / threads=6 / lookahead_threads=1 / sliced_threads=0 / nr=0 / decimate=0 / interlaced=0 / bluray_compat=0 / constrained_intra=0 / bframes=8 / b_pyramid=2 / b_adapt=2 / b_bias=0 / direct=3 / weightb=1 / open_gop=0 / weightp=2 / keyint=240 / keyint_min=23 / scenecut=40 / intra_refresh=0 / rc_lookahead=50 / rc=2pass / mbtree=0 / bitrate=8000 / ratetol=1.0 / qcomp=0.60 / qpmin=0 / qpmax=69 / qpstep=4 / cplxblur=20.0 / qblur=0.5 / vbv_maxrate=50000 / vbv_bufsize=62500 / nal_hrd=none / filler=0 / ip_ratio=1.40 / pb_ratio=1.30 / aq=1:0.80
 Language : English
 Default : Yes
 Forced : No
 DURATION : 02:09:16.874000000
 NUMBER_OF_FRAMES : 185979
 NUMBER_OF_BYTES : 7756606090
 _STATISTICS_WRITING_APP : mkvmerge v12.0.0 ('Trust / Lust') 64bit
 _STATISTICS_WRITING_DATE_UTC : 2017-06-11 18:59:12
 _STATISTICS_TAGS : BPS DURATION NUMBER_OF_FRAMES NUMBER_OF_BYTES

 Audio #1
 ID : 2
 Format : AC-3
 Format/Info : Audio Coding 3
 Mode extension : CM (complete main)
 Format settings, Endianness : Big
 Codec ID : A_AC3
 Duration : 2h 9mn
 Bit rate mode : Constant
 Bit rate : 384 Kbps
 Channel(s) : 6 channels
 Channel positions : Front: L C R, Side: L R, LFE
 Sampling rate : 48.0 KHz
 Bit depth : 16 bits
 Compression mode : Lossy
 Stream size : 355 MiB (4%)
 Title : iTunes
 Language : Russian
 Default : Yes
 Forced : No

 Audio #2
 ID : 3
 Format : AC-3
 Format/Info : Audio Coding 3
 Mode extension : CM (complete main)
 Format settings, Endianness : Big
 Codec ID : A_AC3
 Duration : 2h 9mn
 Bit rate mode : Constant
 Bit rate : 640 Kbps
 Channel(s) : 6 channels
 Channel positions : Front: L C R, Side: L R, LFE
 Sampling rate : 48.0 KHz
 Bit depth : 16 bits
 Compression mode : Lossy
 Stream size : 592 MiB (7%)
 Title : Original
 Language : English
 Default : No
 Forced : No

 Text #1
 ID : 4
 Format : UTF-8
 Codec ID : S_TEXT/UTF8
 Codec ID/Info : UTF-8 Plain Text
 Title : Full (iTunes)
 Language : Russian
 Default : No
 Forced : No

 Text #2
 ID : 5
 Format : UTF-8
 Codec ID : S_TEXT/UTF8
 Codec ID/Info : UTF-8 Plain Text
 Title : Full
 Language : English
 Default : No
 Forced : No

 Text #3
 ID : 6
 Format : UTF-8
 Codec ID : S_TEXT/UTF8
 Codec ID/Info : UTF-8 Plain Text
 Title : SDH
 Language : English
 Default : No
 Forced : No

 Text #4
 ID : 7
 Format : UTF-8
 Codec ID : S_TEXT/UTF8
 Codec ID/Info : UTF-8 Plain Text
 Title : SDH (Colored)
 Language : English
 Default : No
 Forced : No

 Menu
 00:00:00.000 : en:Once Upon A Time
 00:04:36.276 : en:"Belle"
 00:08:06.528 : en:Monsiour Gaston
 00:11:18.261 : en:"How Does A Moment Last Forever" (Music Box)
 00:15:21.546 : en:"Belle" (Reprise)
 00:18:57.386 : en:Our Unwitting Host
 00:25:05.921 : en:"Forever Can Spare A Minute"
 00:31:41.566 : en:The East Wing
 00:36:08.708 : en:"Gaston"
 00:42:32.258 : en:Lonely
 00:47:01.318 : en:"Be Our Guest"
 00:54:44.990 : en:Saved By The Beast
 01:00:43.557 : en:"Days In The Sun"
 01:07:40.932 : en:"Something There"
 01:14:38.224 : en:"How Does A Moment Last Forever" (Montmartre)
 01:19:43.696 : en:Your Troubled Mind
 01:22:02.751 : en:"Beauty And The Beast"
 01:28:53.370 : en:"Evermore"
 01:34:01.302 : en:"The Mob Song"
 01:38:10.176 : en:"Attack!"
 01:45:23.692 : en:"I Am Not A Beast"
 01:49:13.964 : en:The Final Petal
 01:55:54.197 : en:"Beauty And The Beast" (Finale)
 01:58:49.497 : en:End Credits 

.

, , . -. , .

, , , , (1995) BBC (2008) (1775-1817).

, , , , , , 15 . 1990 , 1979-, 1959-.

Disney , . ( , , 1996) 2 ( , 2002). 1991 . Disney, , .

8700 ( 2,65 ) .

, 1115 , , , -- . , , 24 , , , , .

1500 .

, , 20 000 , , 15 .

12000 . , 55 , 914 2160 Swarovski.

, ( ) ( ), , .

, , 1991 , , .

, , 1946 , .

: $160 000 000
: $502 885 446
: + $739 071 127 = $1 241 956 573
: $14 890 407
: 3.35 , 119.3 .
(): 23 2017
(): 16 2017
DVD: 22 2017, û
Blu-Ray: 22 2017, û
MPAA:




! AdBlock , )))
 ·  , , FAQ-
:  [ 12--2017 15:11 ]

  

.torrent

.torrent 41 KB


: 8.15 GB
(hash) : 85b6d91c0490b43051d741c22bd67563de79b55f
:
··
...

, Beauty and the Beast

S L
2016 ··  / Beauty And The Beast ( /Gary Trousdale, /Kirk Wise) [1991 ., ////, DVD9] : ., , Alex0181 79992033287.45 GB 0 0 1293315603

01:20

26--10

2016-2019 ( ) ··  / Beauty and the Beast (2017) UHD BDRemux 2160p | 4K | HDR | D, A Galfimbul 6258619381258.29 GB 0 0 1582960809

10:20

29--20

2016-2019 ( ) ··  / Beauty and the Beast (2017) UHD BDRemux 2160p | 4K | HDR | Galfimbul 5352816495349.85 GB 0 0 1582924258

00:10

29--20

2016-2019 ( ) ·%·  / Beauty and the Beast (2017) WEBRip 1080p | D | Open Matte | Galfimbul 56441490915.26 GB 0 0 1571159408

20:10

15--19

2016-2019 ( ) ·%·  / Beauty and the Beast (2017) BDRip-HEVC 1080p | Galfimbul 87947636108.19 GB 0 0 1552795207

07:00

17--19

2016 ·%·  / Beauty and the Beast ( / Bill Condon) [2017, , , , , , DVD5 ()] . R5, Dub + Sub Rus + Original Eng Galfimbul 46933422084.37 GB 0 0 1531252913

23:01

10--18

2016 ··  / Beauty and the Beast ( / Bill Condon) [2017, , , , , , DVD9] R5 Dub + Sub Rus + Original Eng Galfimbul 71863336966.69 GB 0 0 1524753040

17:30

26--18

2016 ··  / Beauty And The Beast ( / Gary Trousdale, / Kirk Wise) [1991, , , , , , DVD9] , , Galfimbul 68908994566.42 GB 0 0 1507522011

07:06

9--17

··  / Beauty and the Beast ( ) [2017, | | | , BDRip 720p] Galfimbul 25777464972.4 GB 0 0 1504510662

10:37

4--17

2016-2019 ( ) ··  / Beauty and the Beast ( / Bill Condon) [2017, , , , , , BDRip] AVO () Galfimbul 23504199682.19 GB 0 0 1503849726

19:02

27--17

2016 ··  / Beauty and the Beast ( / Bill Condon) [2017, , , , , , BDRip 1080p] Dub + Sub Rus, Eng + Original Eng Galfimbul 1207339687111.24 GB 0 0 1498570542

16:35

27--17

2016-2019 ( ) ··  / Beauty and the Beast ( / Bill Condon) [2017, , , , , BDRip-AVC] Dub + Original (eng) + Sub (rus, eng) Galfimbul 31816690402.96 GB 0 0 1498410075

20:01

25--17

2016 ··  / Beauty and the Beast ( / Bill Condon) [2017, , , , , , Blu-ray disc 1080p] [EUR] Dub + Sub Rus, Eng + Original Eng Galfimbul 4496913584041.88 GB 0 0 1498405174

18:39

25--17

2016-2019 ( ) ··  / Beauty and the Beast ( / Bill Condon) [2017, , , , , BDRip-AVC] Dub Galfimbul 16026179371.49 GB 0 0 1498401037

17:30

25--17

2016-2019 ( ) ··  / Beauty and the Beast ( / Bill Condon) [2017, , , , , BDRip-AVC] Dub Galfimbul 782287988746 MB 0 0 1498401030

17:30

25--17

2016-2019 ( ) ··  / Beauty and the Beast ( / Bill Condon) [2017, , , , , , BDRip] Dub + Sub Rus, Eng + Original Eng Galfimbul 23489765242.19 GB 0 0 1497447028

16:30

14--17

2016-2019 ( ) ··  / Beauty and the Beast ( ) [2017 ., , , , , HDRip] iTunes Galfimbul 15533137921.45 GB 0 0 1497344430

12:00

13--17

2016-2019 ( ) ··  / Beauty and the Beast ( ) [2017 ., , , , , HDRip] iTunes Galfimbul 834490368796 MB 0 0 1497344422

12:00

13--17

··  / Beauty and the Beast / : 1 / : 1-14 (?) ( ) [2012, , , , WEB-DLRip] DVO (NewStudio) Galfimbul 80741191687.52 GB 0 0 1496945735

21:15

8--17

Beauty and the Beast . !

!