Скачать через торрент Мыслить как преступник Criminal Minds Фильм бесплатно в хорошем качестве torrent

Скачивайте на UnionPeer.org фильмы через торрент без регистрации. Новинки кино в хорошем качестве через торрент. На UnionPeer.org можно скачать через торрент фильмы 2014 и 2015 годов. Самые новые фильмы.

Скачать торрент Мыслить как преступник Criminal Minds бесплатно через .torrent фильм мультфильм сериал

Статистика раздачи
Размер:  30.57 GB   |    Зарегистрирован:  6 лет 8 месяцев   |    .torrent скачан:  63 раза   |   
Раздают:  1  
   
 
Автор Сообщение

Galfimbul

avatar Galfimbul


Мыслить как преступник / Criminal Minds
Год выпуска: 2016
Страна: США
Жанр: Детектив, криминал, триллер, драма
Продолжительность: 00:45:00

Перевод: Профессиональный (многоголосый закадровый) Fox

Режиссёр: Джефф Дэвис
В ролях: Джо Мантенья, Шемар Мур, Томас Гибсон, Мэттью Грэй Габлер, Эй Джей Кук, Кирстен Вангснесс, Аиша Тайлер

Описание: Главные герои сериала - команда лучших следователей ФБР, способных понять и проанализировать ход мыслей самых изощрённых преступников, предугадать их дальнейшие поступки и тем самым предотвратить ужасные преступления. Когда обычные криминалисты заходят в тупик, на помощь им приходят специалисты по поведенческому анализу. Вместо тщательного изучения улик они пытаются найти и понять мотивы преступления, досконально вникая в каждый шаг преступника и пытаясь мыслить, как он. Работая на месте преступления, эти профессионалы словно расследуют его изнутри, стараясь понять мысли преступника, какими бы тёмными они ни были.
/ СэмплКачество: WEB-DL 720p
Контейнер: MKV
Видео: MPEG-4 AVC, 1280x718 (16:9), 23.976 fps, 4020 Kbps, 0.182 bits/pixel
Аудио : 48 kHz, AC3, 2 ch, 192 kbps | Russian
Аудио : 48 kHz, AC3, 6 ch, 384 kbps | English
Субтитры: Английские

Реклама: Полностью отсутствует
General

Complete name : Downloads\Criminal.Minds.S12.720p.WEB-DL.FOX.Generalfilm\Criminal.Minds.S12E01.720p.WEB-DL.FOX.Generalfilm.mkv
Format : Matroska
Format version : Version 2
File size : 1.43 GiB
Duration : 43mn 39s
Overall bit rate : 4 689 Kbps
Encoded date : UTC 2016-10-19 05:23:01
Writing application : mkvmerge v4.2.0 ('No Talking') сборка от Jul 28 2010 18:38:23
Writing library : libebml v1.0.0 + libmatroska v1.0.0
DURATION : 00:42:56.204000000
NUMBER_OF_FRAMES : 804
NUMBER_OF_BYTES : 32329
_STATISTICS_WRITING_APP : mkvmerge v9.4.0 ('Knurl') 64bit
_STATISTICS_WRITING_DATE_UTC : 2016-10-02 00:18:54
_STATISTICS_TAGS : BPS DURATION NUMBER_OF_FRAMES NUMBER_OF_BYTES
Video #1
ID : 1
Format : AVC
Format/Info : Advanced Video Codec
Format profile : [email protected]
Format settings, CABAC : No
Format settings, ReFrames : 2 frames
Muxing mode : Header stripping
Codec ID : V_MPEG4/ISO/AVC
Duration : 43mn 39s
Bit rate : 4 020 Kbps
Width : 1 280 pixels
Height : 720 pixels
Display aspect ratio : 16:9
Frame rate mode : Constant
Frame rate : 23.976 fps
Color space : YUV
Chroma subsampling : 4:2:0
Bit depth : 8 bits
Scan type : Progressive
Bits/(Pixel*Frame) : 0.182
Stream size : 1.23 GiB (86%)
Language : English
Default : Yes
Forced : No
Color primaries : BT.709
Transfer characteristics : BT.709
Matrix coefficients : BT.709
Color range : Limited
Audio #2
ID : 2
Format : AC-3
Format/Info : Audio Coding 3
Mode extension : CM (complete main)
Format settings, Endianness : Big
Muxing mode : Header stripping
Codec ID : A_AC3
Duration : 43mn 39s
Bit rate mode : Constant
Bit rate : 192 Kbps
Channel(s) : 2 channels
Channel positions : Front: L R
Sampling rate : 48.0 KHz
Bit depth : 16 bits
Compression mode : Lossy
Stream size : 60.0 MiB (4%)
Title : FOX
Language : Russian
Default : Yes
Forced : No
Audio #3
ID : 3
Format : AC-3
Format/Info : Audio Coding 3
Mode extension : CM (complete main)
Format settings, Endianness : Big
Muxing mode : Header stripping
Codec ID : A_AC3
Duration : 43mn 39s
Bit rate mode : Constant
Bit rate : 384 Kbps
Channel(s) : 6 channels
Channel positions : Front: L C R, Side: L R, LFE
Sampling rate : 48.0 KHz
Bit depth : 16 bits
Compression mode : Lossy
Stream size : 120 MiB (8%)
Language : English
Default : No
Forced : No
Text #4
ID : 4
Format : UTF-8
Codec ID : S_TEXT/UTF8
Codec ID/Info : UTF-8 Plain Text
Language : English
Default : No
Forced : No


Внимание! AdBlock блокирует показ скриншотов, все вопросы к разработчикам )))
Трекер:  [ 13-Июн-2017 17:54 ]

  

Скачать .torrent

Размер .torrent файла 155 KB


Размер: 30.57 GB
Хэш (hash) релиза: de27729d49f343c838b508a2be51f82e791fbb0f
Подписка на обновления:

Торренты, похожие на Мыслить как преступник Criminal Minds скачать торрент

Форум Название Автор Размер S L Добавлен
Зарубежные сериалы ·· Мыслить как преступник / Criminal Minds / Сезон: 12 / Серии: 1-21 из 22 (Джефф Дэвис / Jeff Davis) [2016, США, Детектив, криминал, триллер, драма, WEB-DLRip] MVO (Fox) Galfimbul 99824640009.3 GB 0 0 1497033945

21:45

9-Июн-17

Еще никто не оставлял запись к записи скачать торрент Мыслить как преступник Criminal Minds . Будь первым!

!Обратная связь