Скачать через торрент Живое Life Фильм бесплатно в хорошем качестве torrent

Скачивайте на UnionPeer.org фильмы через торрент без регистрации. Новинки кино в хорошем качестве через торрент. На UnionPeer.org можно скачать через торрент фильмы 2014 и 2015 годов. Самые новые фильмы.

Скачать торрент Живое Life бесплатно через .torrent фильм мультфильм сериал

Статистика раздачи
Размер:  5.99 GB   |    Зарегистрирован:  6 лет 8 месяцев   |    .torrent скачан:  175 раз   |   
Раздают:  1  
 

Скачать Живое / Life (Даниэль Эспиноса / Daniel Espinosa) [2017, США, ужасы, фантастика, триллер, BDRip 720p] Dub (iTunes) + Sub Rus, Ukr, Eng + Original Eng через torrent

 
 
Автор Сообщение

Galfimbul

avatar Galfimbul


Живое / Life

Страна: США
Студия: Columbia Pictures, Skydance Productions, Sony Pictures Entertainment (SPE)
Жанр: ужасы, фантастика, триллер
Год выпуска: 2017
Продолжительность: 01:43:58

Перевод: Профессиональный (дублированный) iTunes
Субтитры: Rus, Ukr, Eng
Оригинальная аудиодорожка: английский

Режиссер: Даниэль Эспиноса / Daniel Espinosa

В ролях: Джейк Джилленхол, Ребекка Фергюсон, Райан Рейнольдс, Ольга Дыховичная, Эрион Бакаре, Хироюки Санада, Наоко Мори, Александр Нгуйен, Камиль Уоррен-Тейлор, Хиу Ун-Син

Описание: Группа исследователей с международного космического корабля обнаруживает жизнь на Марсе. Они еще не подозревают, какие события повлечет за собой их открытие.



Тип релиза: BDRip 720p
Контейнер: MKV

Видео: MPEG-4 AVC, 7229 Кбит/с, 1280x536, 23,976 fps
Аудио: Rus, AC3, 384 kb/s (6 ch), 48 kHz
Аудио 2: Eng, AC3, 640 kb/s (6 ch), 48 kHz
Формат субтитров: softsub (SRT)
Format : Matroska
Format version : Version 4 / Version 2
File size : 5.99 GiB
Duration : 1 h 43 min
Overall bit rate : 8 241 kb/s
Movie name : Живое. (Tonik)
Encoded date : UTC 2017-06-12 11:13:53
Writing application : mkvmerge v7.1.0 ('Good Love') 64bit built on Jul 27 2014 13:06:55
Writing library : libebml v1.3.0 + libmatroska v1.4.1

Video
ID : 1
Format : AVC
Format/Info : Advanced Video Codec
Format profile : [email protected]
Format settings, CABAC : Yes
Format settings, ReFrames : 12 frames
Codec ID : V_MPEG4/ISO/AVC
Duration : 1 h 43 min
Bit rate : 7 229 kb/s
Width : 1 280 pixels
Height : 536 pixels
Display aspect ratio : 2.40:1
Frame rate mode : Constant
Frame rate : 23.976 (23976/1000) FPS
Color space : YUV
Chroma subsampling : 4:2:0
Bit depth : 8 bits
Scan type : Progressive
Bits/(Pixel*Frame) : 0.439
Stream size : 5.25 GiB (88%)
Writing library : x264 core 150 r2833+58 090e24f t_mod_Custom [8-bit@all X86_64]
Encoding settings : cabac=1 / ref=12 / deblock=1:-3:-3 / analyse=0x3:0x133 / me=umh / subme=10 / psy=1 / fade_compensate=0.00 / psy_rd=1.10:0.05 / mixed_ref=1 / me_range=48 / chroma_me=1 / trellis=2 / 8x8dct=1 / cqm=0 / deadzone=21,11 / fast_pskip=1 / chroma_qp_offset=-3 / threads=6 / lookahead_threads=1 / sliced_threads=0 / nr=0 / decimate=1 / interlaced=0 / bluray_compat=0 / constrained_intra=0 / fgo=0 / bframes=8 / b_pyramid=2 / b_adapt=2 / b_bias=0 / direct=3 / weightb=1 / open_gop=0 / weightp=2 / keyint=250 / keyint_min=23 / scenecut=40 / intra_refresh=0 / rc=2pass / mbtree=0 / bitrate=7229 / ratetol=1.0 / qcomp=0.75 / qpmin=0:0:0 / qpmax=69:69:69 / qpstep=4 / cplxblur=20.0 / qblur=0.5 / ip_ratio=1.30 / pb_ratio=1.20 / aq=3:0.80 / aq-sensitivity=10.00 / aq-factor=1.00:1.00:1.00 / aq2=0 / aq3=0
Language : English
Default : Yes
Forced : No
Color range : Limited
Matrix coefficients : BT.709

Audio #1
ID : 2
Format : AC-3
Format/Info : Audio Coding 3
Format settings, Endianness : Big
Codec ID : A_AC3
Duration : 1 h 43 min
Bit rate mode : Constant
Bit rate : 384 kb/s
Channel(s) : 6 channels
Channel positions : Front: L C R, Side: L R, LFE
Sampling rate : 48.0 kHz
Frame rate : 31.250 FPS (1536 spf)
Bit depth : 16 bits
Compression mode : Lossy
Stream size : 286 MiB (5%)
Title : iTunes
Language : Russian
Service kind : Complete Main
Default : Yes
Forced : No

Audio #2
ID : 3
Format : AC-3
Format/Info : Audio Coding 3
Format settings, Endianness : Big
Codec ID : A_AC3
Duration : 1 h 43 min
Bit rate mode : Constant
Bit rate : 640 kb/s
Channel(s) : 6 channels
Channel positions : Front: L C R, Side: L R, LFE
Sampling rate : 48.0 kHz
Frame rate : 31.250 FPS (1536 spf)
Bit depth : 16 bits
Compression mode : Lossy
Stream size : 467 MiB (8%)
Language : English
Service kind : Complete Main
Default : No
Forced : No

Text #1
ID : 4
Format : UTF-8
Codec ID : S_TEXT/UTF8
Codec ID/Info : UTF-8 Plain Text
Duration : 1 h 9 min
Bit rate : 2 b/s
Count of elements : 26
Stream size : 1.18 KiB (0%)
Title : Forced
Language : Russian
Default : Yes
Forced : No

Text #2
ID : 5
Format : UTF-8
Codec ID : S_TEXT/UTF8
Codec ID/Info : UTF-8 Plain Text
Duration : 1 h 41 min
Bit rate : 73 b/s
Count of elements : 1128
Stream size : 54.5 KiB (0%)
Language : Russian
Default : No
Forced : No

Text #3
ID : 6
Format : UTF-8
Codec ID : S_TEXT/UTF8
Codec ID/Info : UTF-8 Plain Text
Duration : 1 h 41 min
Bit rate : 69 b/s
Count of elements : 1126
Stream size : 51.3 KiB (0%)
Language : Ukrainian
Default : No
Forced : No

Text #4
ID : 7
Format : UTF-8
Codec ID : S_TEXT/UTF8
Codec ID/Info : UTF-8 Plain Text
Duration : 49 min 18 s
Bit rate : 0 b/s
Count of elements : 15
Stream size : 282 Bytes (0%)
Title : Forced
Language : English
Default : No
Forced : No

Text #5
ID : 8
Format : UTF-8
Codec ID : S_TEXT/UTF8
Codec ID/Info : UTF-8 Plain Text
Duration : 1 h 31 min
Bit rate : 46 b/s
Count of elements : 1105
Stream size : 30.9 KiB (0%)
Language : English
Default : No
Forced : No

Menu
00:00:00.000 : en:00:00:00.000
00:09:32.864 : en:00:09:32.864
00:13:13.084 : en:00:13:13.084
00:15:36.894 : en:00:15:36.894
00:19:35.341 : en:00:19:35.341
00:24:57.454 : en:00:24:57.454
00:34:36.992 : en:00:34:36.992
00:40:45.109 : en:00:40:45.109
00:43:59.303 : en:00:43:59.303
00:52:21.805 : en:00:52:21.805
00:58:33.927 : en:00:58:33.927
01:06:37.785 : en:01:06:37.785
01:11:43.257 : en:01:11:43.257
01:17:50.875 : en:01:17:50.875
01:22:39.621 : en:01:22:39.621
01:28:34.309 : en:01:28:34.309
Замена видео.

Внимание! AdBlock блокирует показ скриншотов, все вопросы к разработчикам )))
Трекер:  [ 14-Июн-2017 15:30 ]

  

Скачать .torrent

Размер .torrent файла 15 KB


Размер: 5.99 GB
Хэш (hash) релиза: 060961ad8a5ad215c4d0ee1bf93c43cb04014b06
Подписка на обновления:

Торренты, похожие на Живое Life скачать торрент

Форум Название Автор Размер S L Добавлен
Зарубежные фильмы 2016-2019 (Новинки зарубежного кино) ·· Живое / Life (2017) BDRemux 1080p | D, A Galfimbul 3044336810628.35 GB 0 0 1580538608

09:30

1-Фев-20

Зарубежные фильмы 2016-2019 (Новинки зарубежного кино) ·%· Живое / Life (2017) BDRip-HEVC 1080p от HEVC-CLUB | D Galfimbul 45649530664.25 GB 0 0 1573555812

13:50

12-Ноя-19

Зарубежные фильмы 2016-2019 (Новинки зарубежного кино) ·%· Живое / Life (2017) BDRip-HEVC 1080p от HEVC-CLUB | Лицензия Galfimbul 56201982495.23 GB 0 0 1571503830

19:50

19-Окт-19

Зарубежные фильмы 2016-2019 (Новинки зарубежного кино) ·· Живое / Life (Даниэль Эспиноса) [2017 г., ужасы, фантастика, триллер, BDRemux 1080p] D, A | Лицензия Galfimbul 3044309527528.35 GB 0 0 1518847837

09:10

17-Фев-18

Зарубежные фильмы 2016-2019 (Новинки зарубежного кино) ·· Живое / Life (Даниэль Эспиноса) [2017 г., ужасы, фантастика, триллер, BDRip 1080p] D, A | Лицензия Galfimbul 1666509981715.52 GB 0 0 1518846618

08:50

17-Фев-18

Зарубежные фильмы до 2016 ·· Живое / Life (Даниэль Эспиноса / Daniel Espinosa) [2017, США, ужасы, фантастика, триллер, BD>DVD9 (Custom)] DUB + AVO (В. Дохалов) + Sub Rus / Eng + Original Eng Galfimbul 77589360647.23 GB 0 0 1508997968

09:06

26-Окт-17

Зарубежные фильмы до 2016 ·· Живое / Life (Стивен Гейган / Stephen Gaghan) [2017, США, ужасы, фантастика, триллер, BD>DVD5 (Custom)] DUB + AVO (В. Дохалов) + Sub Rus / Eng + Original Eng Galfimbul 46718648324.35 GB 0 0 1508222169

09:36

17-Окт-17

Зарубежные фильмы до 2016 ·· Живое / Life (Даниэль Эспиноса / Daniel Espinosa) [2017, США, Ужасы, фантастика, триллер, DVD5 (сжатый)] исх. R2, Dub + Sub Rus + Original Eng Galfimbul 46919475204.37 GB 0 0 1502006780

11:06

6-Авг-17

Зарубежные фильмы 2016-2019 (Новинки зарубежного кино) ·· Живое / Life (Даниэль Эспиноса / Daniel Espinosa) [2017, США, ужасы, фантастика, триллер, BDRip-AVC] Dub (BD EUR)+ Original + Sub (rus, eng) Galfimbul 23577939402.2 GB 0 0 1501794071

00:01

4-Авг-17

Зарубежные фильмы 2016-2019 (Новинки зарубежного кино) ·· Живое / Life (Даниэль Эспиноса / Daniel Espinosa) [2017, США, ужасы, фантастика, триллер, Blu-Ray EUR 1080p] Лицензия Galfimbul 3359016442631.28 GB 0 0 1501706414

23:40

2-Авг-17

Зарубежные фильмы до 2016 ·· Живое / Life (Даниэль Эспиноса / Daniel Espinosa) [2017, США, Ужасы, фантастика, триллер, DVD9] Dub + Sub Rus + Original Eng Galfimbul 59887778785.58 GB 0 0 1501265174

21:06

28-Июл-17

Зарубежные фильмы 2016-2019 (Новинки зарубежного кино) ·· Живое / Life (Даниэль Эспиноса / Daniel Espinosa) [2017, США, ужасы, фантастика, триллер, HDRip] AVO (Дохалов) Galfimbul 15642767361.46 GB 0 0 1500453025

11:30

19-Июл-17

Зарубежные фильмы 2016-2019 (Новинки зарубежного кино) ·· Живое / Life (Даниэль Эспиноса) [2017 г., ужасы, фантастика, триллер, BDRip] Galfimbul 22407296242.09 GB 0 0 1499149214

09:20

4-Июл-17

Зарубежные фильмы 2016-2019 (Новинки зарубежного кино) ·· Живое / Life (Даниэль Эспиноса / Daniel Espinosa) [2017, США, ужасы, фантастика, триллер, BDRip] Dub + Sub Rus, Eng + Original Eng Galfimbul 23384421782.18 GB 0 0 1498813271

12:01

30-Июн-17

Зарубежные фильмы 2016-2019 (Новинки зарубежного кино) ·· Живое / Life (Даниэль Эспиноса / Daniel Espinosa) [2017, США, ужасы, фантастика, триллер, BDRip-AVC] Dub (iTunes) Galfimbul 781186870745 MB 0 0 1497625274

18:01

16-Июн-17

Зарубежные фильмы 2016-2019 (Новинки зарубежного кино) ·· Живое / Life (Даниэль Эспиноса / Daniel Espinosa) [2017, США, Ужасы, фантастика, триллер, BDRip-AVC] Dub + Sub Rus, Eng + Original Eng Galfimbul 27779117722.59 GB 0 0 1497493826

05:30

15-Июн-17

Зарубежные фильмы 2016-2019 (Новинки зарубежного кино) ·· Живое / Life (Даниэль Эспиноса) [2017, ужасы, фантастика, триллер, BDRip 1080p] 60 fps Galfimbul 86295898628.04 GB 0 0 1497174631

12:50

11-Июн-17

Зарубежные фильмы 2016-2019 (Новинки зарубежного кино) ·· Живое / Life (Даниэль Эспиноса) [2017 г., ужасы, фантастика, триллер, BDRip 1080p] iTunes Galfimbul 1175618587410.95 GB 0 0 1496930408

17:00

8-Июн-17

Зарубежные фильмы 2016-2019 (Новинки зарубежного кино) ·· Живое / Life (Даниэль Эспиноса) [2017 г., ужасы, фантастика, триллер, HDRip] iTunes Galfimbul 781862059746 MB 0 0 1496928610

16:30

8-Июн-17

Еще никто не оставлял запись к записи скачать торрент Живое Life . Будь первым!

!Обратная связь